Торренты   
 
 

 

Уличные танцы 3Д / Street Dance 3D (Макс Джива / Max Jiva, Дания Пасквини / Denmark Pasquini) [2010 г., Anamorph OverUnder]

Рейтинг 3D:
13 голосов
8.4
Рейтинг фильма:
13 голосов
8.6
 
Вы должны быть авторизированы,
чтобы ставить оценки


Уличные танцы 3Д / Street Dance 3D
Год выпуска: 2010
Страна: Великобритания
Жанр: мелодрама, музыка
Продолжительность: 1:38:40
Перевод: Профессиональный (полное дублирование)
Режиссер: Макс Джива / Max Jiva, Дания Пасквини / Denmark Pasquini
В ролях: Шарлотта Рэмплинг, Рэйчел МакДауэлл, Никола Берли, Ричард Уинзор, Элинор Брон, Джордж Сэмпсон, Джереми Шеффилд, Кристофер Уилсон, Патрик Балади, Фрэнк Харпер
Описание: Для победы на ежегодном Street Dance-чемпионате группа молодых танцоров начинает репетировать вместе с танцорами из Королевской Школы Балета. На стыке рок-н-ролла, уличных танцев и классики рождается умопомрачительный микс танцевальных стилей, страстей и эмоций.
Формат 3d: Anamorph OverUnder
Качество: BDrip
Формат : MKV
Видео кодек : x264
Аудио кодек : AC3
Видео: MPEG4 Video (H264) 1920x1080 23.98fps 12,6 Мбит/сек
Аудио1: Russian Dolby AC3 48000Hz 6ch 384kbps

Скриншоты



MI

Общее
Уникальный идентификатор : 181645391756927528159932562092354411147 (0x88A7A142BAC1FF23A144FD9935E39A8B)
Полное имя : Уличные танцы_half_OU.mkv
Формат : Matroska
Размер файла : 9,16 Гбайт
Продолжительность : 1 ч. 38 м.
Общий поток : 13,3 Мбит/сек
Дата кодирования : UTC 2011-10-05 17:11:07
Программа кодирования : mkvmerge v4.3.0 ('Escape from the Island') сборка от Sep 5 2010 10:30:51
Библиотека кодирования : libebml v1.0.0 + libmatroska v1.0.0
Видео
Идентификатор : 1
Формат : AVC
Формат/Информация : Advanced Video Codec
Профиль формата : High@L4.0
Параметр CABAC формата : Да
Параметр ReFrames формата : 4 кадры
Идентификатор кодека : V_MPEG4/ISO/AVC
Продолжительность : 1 ч. 38 м.
Битрейт : 12,6 Мбит/сек
Ширина : 1920 пикс.
Высота : 1080 пикс.
Соотношение сторон : 16:9
Частота кадров : 23,976 кадр/сек
Цветовое пространство : YUV
Подвыборка цветности : 4:2:0
Битовая глубина : 8 бит
Тип развёртки : Прогрессивная
Бит/(Пиксели*Кадры) : 0.254
Размер потока : 8,71 Гбайт (95%)
Библиотека кодирования : x264 core 116 r2074 2641b9e
Настройки программы : cabac=1 / ref=4 / deblock=1:-3:-3 / analyse=0x3:0x133 / me=umh / subme=10 / psy=1 / psy_rd=1.00:0.05 / mixed_ref=1 / me_range=16 / chroma_me=1 / trellis=2 / 8x8dct=1 / cqm=0 / deadzone=21,11 / fast_pskip=0 / chroma_qp_offset=-3 / threads=6 / sliced_threads=0 / nr=0 / decimate=1 / interlaced=0 / bluray_compat=0 / constrained_intra=0 / bframes=7 / b_pyramid=2 / b_adapt=2 / b_bias=0 / direct=3 / weightb=1 / open_gop=0 / weightp=2 / keyint=250 / keyint_min=23 / scenecut=40 / intra_refresh=0 / rc_lookahead=40 / rc=crf / mbtree=1 / crf=18.0 / qcomp=0.70 / qpmin=0 / qpmax=51 / qpstep=4 / frame-packing=4 / ip_ratio=1.40 / aq=1:0.90
Аудио
Идентификатор : 2
Формат : AC-3
Формат/Информация : Audio Coding 3
Расширение режима : CM (complete main)
Идентификатор кодека : A_AC3
Продолжительность : 1 ч. 38 м.
Вид битрейта : Постоянный
Битрейт : 384 Кбит/сек
Канал(ы) : 6 канала(ов)
Расположение каналов : Front: L C R, Side: L R, LFE
Частота : 48,0 КГц
Битовая глубина : 16 бит
Метод сжатия : С потерями
Размер потока : 271 Мбайт (3%)
Меню
00:00:00.000 : :00:00:00.000
00:05:32.582 : :00:05:32.582
00:12:03.264 : :00:12:03.264
00:17:50.569 : :00:17:50.569
00:24:23.629 : :00:24:23.629
00:30:38.670 : :00:30:38.670
00:36:28.812 : :00:36:28.812
00:43:15.134 : :00:43:15.134
00:49:04.859 : :00:49:04.859
00:54:11.623 : :00:54:11.623
01:00:04.309 : :01:00:04.309
01:07:27.585 : :01:07:27.585
01:13:47.256 : :01:13:47.256
01:18:24.575 : :01:18:24.575
01:25:12.733 : :01:25:12.733
01:32:29.127 : :01:32:29.127
Внимание! У кого на ТВ не показывает, не прет, не воспроизводит, не кажет, итд... прогоняем через MKVmergeGUI используя за основу эту инструкцию - MKVmergeGUI (инструкция по основным операциям редактирования) - Если не помогает, удаляем главы по этой же инструкции!
Остальные раздачи этого фильма (4)
Благодарности релизеру (11)

Торрент:

Статус:

Размер:

Зарегистрирован   [ 2012-05-06 21:10 ]

проверено

9.16 GB

 
 Мнение о фильме (14)





Отличное кино! Эффекты просто потрясные!!! Я такое видел только в Вольте! Автору Респект!
 

А что? Вполне себе фильм. Есть на других трекерах версии, которые весят 40гб. Специально скачаю, что бы сравнить какчество! Отпишусь.
 

Фильм так себе
Тупо сделали по фильму шаг вперёд 1-2 и спёрли идею с 3D у фильма Шаг Вперёд 3D
 

Скачал фильм, решил запустить на пару минут проверить, как он смотрится... да так и досмотрел до конца.
И как бы ни хаяли качество, идею и отсутствие постобработки, мне, неискушённому зрителю, картинка очень понравилась! (NVIDIA 3D Vision)
 

Скачан 512 раз! А где сиды? Ау!
 

Уважаемый dimsa! Я понял почему Ваш файл не скачивается зарегестрированными участниками нашего сайта! Всё дело в том, что ваш файл уходит на сторону и вы им фактически не руководите.
Как же это происходит? А вот как. Совсем недавно в сети появилась новая прога для скачивания файлов из сети - "ZONA. Торрент-клиент с функцией просмотра фильмов и сериалов онлайн. Версия 1.0.1.6". которая находится вот здесь - http://www.torrentino.com/ Она установлена на моём компьютере и я ей пользовался некоторое время, пока мой вирусник не заблокировал один из элементов этой проги. Думаю, что эта прога очень опасна не только для всех треккеров, но и для пользователей тоже! Завтра я поподробней расскажу вам об этом, а пока займитесь вот чем, если у вас где-то в торрентах прячутся файлы в квадратике буква - Z (кажись зелёного цвета, точно не помню), удалите их немедленно! Это пусковые файлы ЗОНЫ с расширением (ехе).
 

"Полного источника не было: Никогда"
Ага, одна из моих догадок подтвердилась - файл скачивается со сторонних ресурсов!
Но хотя бы файл, должен храниться у вас на диске, или это необязательно? О ЗОНЕ перетру на более подходящем сайте, когда напишу статью.
 

Dimsat1, отдайте пожалуйста остатки! 35 процентов осталось докачать, нельзя же такую клёвую раздачу без сида оставлять...
 

Хороший фильм
 

на тв идет нет
 

Спасибо. Глянем
 

Очень давно хотел посмотреть в 3Д.но к сожалению звук идет а картинка не открылась,даже не знаю в чем причина((((
 

ash61, на русской DD звуковые каналы перепутаны (левый фронт с правой задней), английская в DTS всё нормально. в файле где 8.6 гига. остальные не смотрел. Проверил на 2 устройствах телек и Блюрей Самсунги
 

Скачать не могу,дайте скорости пожалуйста)))