Торренты   
 
 

 

Зеленый Фонарь / Green Lantern (Мартин Кэмпбелл / Martin Campbell) [2011г, 720p, BDrip, OverUnder]

Рейтинг 3D:
42 голосов
7.0
Рейтинг фильма:
44 голосов
6.7
 
Вы должны быть авторизированы,
чтобы ставить оценки


Театральная версия / Theatrical Cut

Название: Зеленый Фонарь / Green Lantern
Год выпуска: 2011
Страна: США
Жанр: фантастика, фэнтези, боевик, триллер, приключения
Продолжительность: 01:54:00
Перевод: Профессиональный (полное дублирование) Лицензия
Субтитры: Русские (форсированные + полные), английские-Режиссер:
Мартин Кэмпбелл / Martin Campbell
В ролях:
Райан Рейнольдс, Блейк Лайвли, Питер Сарсгаард, Марк Стронг, Темуэра Моррисон, Дженна Крэйг, Джон Тенни, Майк Дойл, Гэтлин Гриффит, Николас Джендл-Описание:
Во Вселенной, столь же бесконечной, сколь и загадочной, многие века существовал отряд воинов, обладающих огромной силой. Защитники мира и справедливости, их называют Корпус Зеленых Фонарей. Братство воинов, поклявшихся защищать межгалактический закон, где каждый из них носит кольцо, дарующее ему сверхспособности. Но когда новый враг по имени Параллакс угрожает нарушить равновесие во Вселенной, их судьба и судьба Земли оказывается в руках новобранца, первого человека в истории отряда — Хэла Джордана.
Хэл — дерзкий и талантливый летчик-испытатель, но Зеленые Фонари не испытывают доверия и уважения к человечеству, ведь людям до этого ни разу не удалось обуздать безграничную силу кольца. Но Хэл — как недостающий кусочек мозаики, и вместе с решимостью и силой воли он обладает тем, чего не было ни у одного звездного воителя, — человечностью. Если при поддержке напарника и подруги детства Кэрол Феррис (Блейк Лайвли) Хэл сможет быстро научиться управлять мощью кольца и найдет мужество преодолеть свои страхи, он сможет не только доказать, что он является ключом к победе над Параллаксом… но и станет величайшим Зеленым Фонарем из всех.-Качество: BDrip
Контейнер: MKV
Формат 3D: OverUnder / Вертикальная стереопара
Видео кодек: x264
Аудио кодек: AC3
Видео: x264, 1280x1056, 23.976 кадр/сек, 10,2 Мбит/сек
Аудио 1: Русский; AC3; 448 Kbps; CBR; 6 ch; 48 kHz; DN -4dB
Аудио 2: Русский В.Замез; AC3, 6 каналов, 384 Кбит/сек, 48,0 КГц (отдельно на Narod.Ru)
Аудио 3: Английский; AC3, 6 каналов, 448 Кбит/сек, 48,0 КГц (отдельно на Narod.Ru)
Аудио 4: Украинский; AC3; 448 Kbps; CBR; 6 ch; 48 kHz; DN -4dB (отдельно на Narod.Ru)
Субтитры: Русские (форсированные + полные), английские19.10.2011 - русская дорожка заменена на Лицензию, обновите торрент-файл!

Знаете ли вы, что...

  • Зелёный Фонарь был создан автором Биллом Фингером и художником Мартином Ноделлом в All-American Comics #16 (июль 1940).
  • Главными претендентами на роль Зеленого Фонаря, помимо Райана Рейнольдса, были Брэдли Купер и Джастин Тимберлейк. Главная роль могла также достаться Сэму Уортингтону, Крису Пайну и Джареду Лето.
  • Синестро (Марк Стронг) могли сыграть Хьюго Уивинг, Джеки Эрл Хейли и Джеффри Раш.

СКРИНШОТЫ

MI


Общее
Уникальный идентификатор : 217678825760733444661346137361819486835 (0xA3C36AB897CB456D8FEFFD510E71CA73)
Полное имя : M:\3D-RuGroup\Green.Lantern.3D.2011.BD3DRip.720p.OU.x264.AC3.Rus.mkv
Формат : Matroska
Версия формата : Version 2
Размер файла : 8,68 Гбайт
Продолжительность : 1 ч. 54 м.
Общий поток : 10,9 Мбит/сек
Название фильма : GreenLantern.3D.2011.BD3DRip.720p.OU.x264.AC3
Дата кодирования : UTC 2011-10-19 14:08:43
Программа кодирования : mkvmerge v3.4.0 ('Rapunzel') сборка от May 15 2010 09:38:20
Библиотека кодирования : libebml v0.8.0 + libmatroska v0.9.0
Видео
Идентификатор : 1
Формат : AVC
Формат/Информация : Advanced Video Codec
Профиль формата : High@L4.0
Параметр CABAC формата : Да
Параметр ReFrames формата : 5 кадров
Идентификатор кодека : V_MPEG4/ISO/AVC
Продолжительность : 1 ч. 54 м.
Битрейт : 10,2 Мбит/сек
Ширина : 1280 пикселей
Высота : 1056 пикселей
Соотношение сторон : 1,212
Частота кадров : 23,976 кадра/сек
Цветовое пространство : YUV
Субдискретизация насыщенности : 4:2:0
Битовая глубина : 8 бит
Тип развёртки : Прогрессивная
Бит/(Пиксели*Кадры) : 0.316
Размер потока : 8,15 Гбайт (94%)
Заголовок : GreenLantern by itsamna (aka elephant, AnTo}{@)
Библиотека кодирования : x264 core 114 r1924 08d04a4
Настройки программы : cabac=1 / ref=5 / deblock=1:-3:-3 / analyse=0x3:0x133 / me=umh / subme=9 / psy=1 / psy_rd=1.00:0.25 / mixed_ref=1 / me_range=16 / chroma_me=1 / trellis=2 / 8x8dct=1 / cqm=0 / deadzone=21,11 / fast_pskip=0 / chroma_qp_offset=-4 / threads=3 / sliced_threads=0 / nr=0 / decimate=1 / interlaced=0 / constrained_intra=0 / bframes=6 / b_pyramid=2 / b_adapt=2 / b_bias=0 / direct=3 / weightb=1 / open_gop=0 / weightp=2 / keyint=250 / keyint_min=23 / scenecut=40 / intra_refresh=0 / rc_lookahead=40 / rc=crf / mbtree=1 / crf=18.0 / qcomp=0.70 / qpmin=10 / qpmax=51 / qpstep=4 / ip_ratio=1.40 / aq=1:0.70
Аудио
Идентификатор : 2
Формат : AC-3
Формат/Информация : Audio Coding 3
Расширение режима : CM (complete main)
Идентификатор кодека : A_AC3
Продолжительность : 1 ч. 54 м.
Вид битрейта : Постоянный
Битрейт : 448 Кбит/сек
Каналы : 6 каналов
Расположение каналов : Front: L C R, Side: L R, LFE
Частота : 48,0 КГц
Битовая глубина : 16 бит
Метод сжатия : С потерями
Размер потока : 365 Мбайт (4%)
Заголовок : Russian 5.1 Dub
Текст #1
Идентификатор : 3
Формат : UTF-8
Идентификатор кодека : S_TEXT/UTF8
Идентификатор кодека/Информация : UTF-8 Plain Text
Заголовок : Russian F
Язык : Russian
Текст #2
Идентификатор : 4
Формат : UTF-8
Идентификатор кодека : S_TEXT/UTF8
Идентификатор кодека/Информация : UTF-8 Plain Text
Заголовок : Russian
Язык : Russian
Текст #3
Идентификатор : 5
Формат : UTF-8
Идентификатор кодека : S_TEXT/UTF8
Идентификатор кодека/Информация : UTF-8 Plain Text
Заголовок : English
Язык : English
Меню
00:00:00.000 : :CHAPTER01
00:06:37.814 : :CHAPTER02
00:16:36.078 : :CHAPTER03
00:24:36.141 : :CHAPTER04
00:33:13.909 : :CHAPTER05
00:40:33.806 : :CHAPTER06
00:48:23.818 : :CHAPTER07
00:57:05.464 : :CHAPTER08
01:04:24.527 : :CHAPTER09
01:15:01.831 : :CHAPTER10
01:23:11.486 : :CHAPTER11
01:34:29.455 : :CHAPTER12
01:42:22.762 : :CHAPTER13
01:47:15.346 : :CHAPTER14
Остальные раздачи этого фильма (5)
Благодарности релизеру (1)

Торрент:

Статус:

Размер:

Зарегистрирован   [ 2011-10-19 20:04 ]

проверено

8.68 GB

 
 Мнение о фильме (8)





Отличная фантастика, мне вообще визуальный ряд здесь больше понравился чем в хваленых Мстителях. Но фильм, в первую очередь, для любителей нестандартной фантастики. Противопоказан нелюбителям зеленого цвета)).
 

В общем и целом - вполне ничего, но не захватывает...
 

Фильм не впечатлил.На любителя.3D на уровне.
 

Мне совсем понравился фильм и 3D эффект ни какой.
 

Ладно хоть не голубой фонарь! А то на западе с этим носятся.....
 

На разок
 

посмотреть стоит
 

Спасибо за фильм. Отличная фантастика!