Торренты   
 
 

 

Хроники Нарнии: Покоритель Зари 3D / Chronicles of Narnia: The Voyage of the Dawn Treader 3D (Майкл Эптид) [2010 г., Anamorph OverUnder]

Рейтинг 3D:
6 голосов
7.0
Рейтинг фильма:
4 голосов
8.2
 
Вы должны быть авторизированы,
чтобы ставить оценки


Хроники Нарнии: Покоритель Зари 3D / Chronicles of Narnia: The Voyage of the Dawn Treader 3D
Год выпуска: 2010
Страна: США
Жанр: фэнтези, приключения, семейный
Продолжительность: 01:52:40
Перевод: Профессиональный (полное дублирование)
Режиссер: Майкл Эптид
В ролях: Бен Барнс, Скандар Кейнс, Джорджи Хенли, Уилл Поултер, Гари Свит, Тильда Суинтон, Анна Попплуэлл, Уильям Моусли, Лиам Нисон, Саймон Пегг, Терри Норрис, Брюс Спенс.
Описание: Эдмунд, Люси, их кузен Юстас и король Каспиан отплывают на корабле «Покоритель Зари» на поиски друзей отца Каспиана - семи лордов: Ревелиана, Берна, Аргоза, Мавроморна, Октезиана, Рестимара и Рупа, изгнанных во время недолгого правления тирана Мираза.
Формат 3d: Anamorph OverUnder
Видео: MPEG4 Video (H264) 1920x1080p 23.98fps 19,3 Мбит/сек
Аудио: AC3, 640 Кбит/сек, 6 каналов, 48,0 КГц, 16 бит

Скриншоты



МИ

Общее
Уникальный идентификатор : 221789827640394926579203811863074430683 (0xA6DB2AC3382C4DD19B0E583AAB7BDEDB)
Полное имя : Хроники Нарнии_half_OU.mkv
Формат : Matroska
Размер файла : 16,0 Гбайт
Продолжительность : 1 ч. 52 м.
Общий поток : 20,4 Мбит/сек
Дата кодирования : UTC 2011-10-13 19:03:30
Программа кодирования : mkvmerge v5.0.0 ('Die Wahre Liebe') built on Sep 25 2011 20:33:49
Библиотека кодирования : libebml v1.2.2 + libmatroska v1.3.0
Видео
Идентификатор : 1
Формат : AVC
Формат/Информация : Advanced Video Codec
Профиль формата : High@L4.0
Параметр CABAC формата : Да
Параметр ReFrames формата : 4 кадры
Идентификатор кодека : V_MPEG4/ISO/AVC
Продолжительность : 1 ч. 52 м.
Битрейт : 19,3 Мбит/сек
Ширина : 1920 пикс.
Высота : 1080 пикс.
Соотношение сторон : 16:9
Частота кадров : 23,976 кадр/сек
Цветовое пространство : YUV
Подвыборка цветности : 4:2:0
Битовая глубина : 8 бит
Тип развёртки : Прогрессивная
Бит/(Пиксели*Кадры) : 0.389
Размер потока : 15,2 Гбайт (95%)
Заголовок : BDrip By TopGun
Библиотека кодирования : x264 core 116 r2074 2641b9e
Настройки программы : cabac=1 / ref=4 / deblock=1:-3:-3 / analyse=0x3:0x133 / me=umh / subme=10 / psy=1 / psy_rd=1.00:0.05 / mixed_ref=1 / me_range=16 / chroma_me=1 / trellis=2 / 8x8dct=1 / cqm=0 / deadzone=21,11 / fast_pskip=0 / chroma_qp_offset=-3 / threads=6 / sliced_threads=0 / nr=0 / decimate=1 / interlaced=0 / bluray_compat=0 / constrained_intra=0 / bframes=7 / b_pyramid=2 / b_adapt=2 / b_bias=0 / direct=3 / weightb=1 / open_gop=0 / weightp=2 / keyint=250 / keyint_min=23 / scenecut=40 / intra_refresh=0 / rc_lookahead=40 / rc=crf / mbtree=1 / crf=18.0 / qcomp=0.70 / qpmin=0 / qpmax=51 / qpstep=4 / frame-packing=4 / ip_ratio=1.40 / aq=1:0.90
Аудио
Идентификатор : 2
Формат : AC-3
Формат/Информация : Audio Coding 3
Расширение режима : CM (complete main)
Идентификатор кодека : A_AC3
Продолжительность : 1 ч. 52 м.
Вид битрейта : Постоянный
Битрейт : 640 Кбит/сек
Канал(ы) : 6 канала(ов)
Расположение каналов : Front: L C R, Side: L R, LFE
Частота : 48,0 КГц
Битовая глубина : 16 бит
Метод сжатия : С потерями
Размер потока : 516 Мбайт (3%)
Заголовок : AC3 Дубляж
Язык : Russian
Меню
00:00:00.000 : :00:00:00.000
00:04:28.477 : :00:04:28.477
00:07:37.040 : :00:07:37.040
00:11:58.259 : :00:11:58.259
00:15:22.463 : :00:15:22.463
00:20:06.288 : :00:20:06.288
00:27:14.508 : :00:27:14.508
00:32:20.689 : :00:32:20.689
00:36:46.371 : :00:36:46.371
00:39:51.598 : :00:39:51.598
00:41:56.389 : :00:41:56.389
00:45:21.928 : :00:45:21.928
00:47:51.494 : :00:47:51.494
00:52:52.544 : :00:52:52.544
00:58:04.940 : :00:58:04.940
01:01:51.333 : :01:01:51.333
01:05:43.731 : :01:05:43.731
01:08:20.805 : :01:08:20.805
01:10:49.912 : :01:10:49.912
01:16:55.027 : :01:16:55.027
01:20:23.569 : :01:20:23.569
01:23:48.315 : :01:23:48.315
01:28:23.507 : :01:28:23.507
01:32:30.462 : :01:32:30.462
01:35:58.753 : :01:35:58.753
01:38:07.465 : :01:38:07.465
01:40:55.549 : :01:40:55.549
01:45:06.967 : :01:45:06.967
Внимание! Правый ракурс первый ( с верху), Владельцам ТВ для просмотра необходимо поменять в настройках ракурсы местами, либо перевернуть очки.
Внимание! У кого на ТВ не показывает, не прет, не воспроизводит, не кажет, итд... прогоняем через MKVmergeGUI используя за основу эту инструкцию - MKVmergeGUI (инструкция по основным операциям редактирования) - Если не помогает, удаляем главы по этой же инструкции!
Благодарности релизеру (6)

Торрент:

Статус:

Размер:

Зарегистрирован   [ 2012-05-06 21:08 ]

проверено

16.05 GB