Торренты   
 
 

 

Зеленый Фонарь / Green Lantern (Мартин Кэмпбелл) [2011 г., BDRip 1080p, Full OverUnder]

Рейтинг 3D:
42 голосов
7.0
Рейтинг фильма:
44 голосов
6.7
 
Вы должны быть авторизированы,
чтобы ставить оценки


Зеленый Фонарь / Green Lantern
Год выпуска: 2011
Страна: США
Жанр: фантастика, фэнтези, боевик, триллер, приключения
Продолжительность: 01:53:57
Перевод: Профессиональный (полное дублирование)
Режиссер: Мартин Кэмпбелл
В ролях: Райан Рейнольдс, Блейк Лайвли, Питер Сарсгаард, Марк Стронг, Темуэра Моррисон, Дженна Крэйг, Джон Тенни, Майк Дойл, Гэтлин Гриффит, Николас Джендл
Описание: Во Вселенной, столь же бесконечной, сколь и загадочной, многие века существовал отряд воинов, обладающих огромной силой. Защитники мира и справедливости, их называют Корпус Зеленых Фонарей. Братство воинов, поклявшихся защищать межгалактический закон, где каждый из них носит кольцо, дарующее ему сверхспособности. Но когда новый враг по имени Параллакс угрожает нарушить равновесие во Вселенной, их судьба и судьба Земли оказывается в руках новобранца, первого человека в истории отряда — Хэла Джордана.

Хэл — дерзкий и талантливый летчик-испытатель, но Зеленые Фонари не испытывают доверия и уважения к человечеству, ведь людям до этого ни разу не удалось обуздать безграничную силу кольца. Но Хэл — как недостающий кусочек мозаики, и вместе с решимостью и силой воли он обладает тем, чего не было ни у одного звездного воителя, — человечностью. Если при поддержке напарника и подруги детства Кэрол Феррис (Блейк Лайвли) Хэл сможет быстро научиться управлять мощью кольца и найдет мужество преодолеть свои страхи, он сможет не только доказать, что он является ключом к победе над Параллаксом… но и станет величайшим Зеленым Фонарем из всех.
Формат 3d: OverUnder
Видео: AVC, h264, 1920х1616 , 23,976 кадр/сек, 25,5 Мбит/сек
Аудио: Rus, AC-3, 6 каналов, 448 Кбит/сек, 48,0 КГц
Аудио: Eng, AC-3, 6 каналов, 640 Кбит/сек, 48,0 КГц

Скриншоты



me

Общее
Формат : Matroska
Размер файла : 21,6 Гбайт
Продолжительность : 1 ч. 54 м.
Общий поток : 27,1 Мбит/сек
Дата кодирования : UTC 2011-10-14 08:17:15
Программа кодирования : mkvmerge v3.4.0 ('Rapunzel') сборка от May 15 2010 09:38:20
Библиотека кодирования : libebml v0.8.0 + libmatroska v0.9.0
Видео
Идентификатор : 1
Формат : AVC
Формат/Информация : Advanced Video Codec
Профиль формата : High@L5.0
Параметр CABAC формата : Да
Параметр ReFrames формата : 4 кадры
Идентификатор кодека : V_MPEG4/ISO/AVC
Продолжительность : 1 ч. 54 м.
Битрейт : 25,5 Мбит/сек
Ширина : 1920 пикс.
Высота : 1616 пикс.
Соотношение сторон : 1,188
Частота кадров : 23,976 кадр/сек
Цветовое пространство : YUV
Подвыборка цветности : 4:2:0
Битовая глубина : 8 бит
Тип развёртки : Прогрессивная
Бит/(Пиксели*Кадры) : 0.342
Размер потока : 20,3 Гбайт (94%)
Библиотека кодирования : x264 core 116 r2074 2641b9e
Настройки программы : cabac=1 / ref=4 / deblock=1:-3:-3 / analyse=0x3:0x113 / me=umh / subme=9 / psy=1 / psy_rd=1.00:0.00 / mixed_ref=1 / me_range=16 / chroma_me=1 / trellis=2 / 8x8dct=1 / cqm=0 / deadzone=21,11 / fast_pskip=1 / chroma_qp_offset=-3 / threads=9 / sliced_threads=0 / nr=0 / decimate=1 / interlaced=0 / bluray_compat=0 / constrained_intra=0 / bframes=6 / b_pyramid=0 / b_adapt=2 / b_bias=0 / direct=3 / weightb=1 / open_gop=0 / weightp=2 / keyint=250 / keyint_min=23 / scenecut=40 / intra_refresh=0 / rc_lookahead=40 / rc=crf / mbtree=1 / crf=18.0 / qcomp=0.60 / qpmin=0 / qpmax=69 / qpstep=4 / frame-packing=4 / ip_ratio=1.40 / aq=1:1.00
Язык : English
Аудио #1
Идентификатор : 2
Формат : AC-3
Формат/Информация : Audio Coding 3
Расширение режима : CM (complete main)
Идентификатор кодека : A_AC3
Продолжительность : 1 ч. 54 м.
Вид битрейта : Постоянный
Битрейт : 448 Кбит/сек
Канал(ы) : 6 канала(ов)
Расположение каналов : Front: L C R, Side: L R, LFE
Частота : 48,0 КГц
Битовая глубина : 16 бит
Метод сжатия : С потерями
Размер потока : 365 Мбайт (2%)
Язык : Russian
Аудио #2
Идентификатор : 3
Формат : AC-3
Формат/Информация : Audio Coding 3
Расширение режима : CM (complete main)
Идентификатор кодека : A_AC3
Продолжительность : 1 ч. 54 м.
Вид битрейта : Постоянный
Битрейт : 640 Кбит/сек
Канал(ы) : 6 канала(ов)
Расположение каналов : Front: L C R, Side: L R, LFE
Частота : 48,0 КГц
Битовая глубина : 16 бит
Метод сжатия : С потерями
Размер потока : 522 Мбайт (2%)
Язык : English
Скриншоты сравнения
Остальные раздачи этого фильма (5)
Благодарности релизеру (4)

Торрент:

Статус:

Размер:

Зарегистрирован   [ 2011-10-14 12:45 ]

проверено

21.59 GB

 
 Мнение о фильме (8)





Отличная фантастика, мне вообще визуальный ряд здесь больше понравился чем в хваленых Мстителях. Но фильм, в первую очередь, для любителей нестандартной фантастики. Противопоказан нелюбителям зеленого цвета)).
 

В общем и целом - вполне ничего, но не захватывает...
 

Фильм не впечатлил.На любителя.3D на уровне.
 

Мне совсем понравился фильм и 3D эффект ни какой.
 

Ладно хоть не голубой фонарь! А то на западе с этим носятся.....
 

На разок
 

посмотреть стоит
 

Спасибо за фильм. Отличная фантастика!