Торренты   
 
 

 

Три богатыря и Шамаханская царица [2010г, 1080p, BDrip, Anamorph OverUnder]

Рейтинг 3D:
8 голосов
7.5
Рейтинг фильма:
6 голосов
7.7
 
Вы должны быть авторизированы,
чтобы ставить оценки


Три богатыря и Шамаханская царица
Год выпуска: 2010
Страна: Россия (Мельница, СТВ)
Жанр: Mультфильм, Комедия, Приключения, Семейный
Продолжительность: 01:16:42
Перевод: Не требуется
Режиссер: Сергей Глезин
Роли озвучивали: Дмитрий Быковский-Ромашов (Илья Муромец), Валерий Соловьев (Добрыня Никитич), Олег Куликович (Алеша Попович / Змей Горыныч), Сергей Маковецкий (князь Киевский), Анна Геллер (Шамаханская царица), Дмитрий Высоцкий (конь Юлий), Константин Бронзит (ворон), Мария Цветкова-Овсянникова (Аленушка), Елена Шульман (Настасья), Лия Медведева (Любава), Игорь Шибанов (советник), Анатолий Петров (Тихон / сэнсэй), Сергей Глезин ('нормальный парень'), Михаил Черняк (рассказчик)
Описание: Легендарная Шамаханская царица, которая сводила с ума многих царей и простых смертных, положила свой глаз и на Киевского князя. Тот заболел любовью странной по ней. Но чтобы доставить в целости и сохранности эту чудо-богиню в Киев-Град, срочно из отпуска вызывают всех троих, уже знакомых нам, богатырей: Алёшу Поповича, Добрыню Никитича и Илью Муромца. Теперь троица должна решить, как быть дальше? Вроде бы и слухи о царице ходят нелестные, и князя жаль.Проверено на встроенном плейере ТВ Samsung UE-C7000 Формат 3d: Anamorph OverUnder
Качество: BDrip
Контейнер: MKV
Видео: AVC / 1920х1080p / 23,976 fps / 8 454 Kbps
Аудио: Русский / AC3 / 48 KHz / 5.1 ch / 640 Kbps

MediaInfo

General
UniqueID : 200963913859425356397292193254014905548 (0x97303DF00FFD5AB29A61CE6694E6ECCC)
Complete name : F:\Downloads\3BogatyryaIShamahanskayaCarica3D.halfOU.AC3.ash61.mkv
Format : Matroska
File size : 4.97 GiB
Duration : 1h 16mn
Overall bit rate : 9 279 Kbps
Movie name : Три богатыря и Шамаханская царица (ash61)
Encoded date : UTC 2011-10-14 06:38:59
Writing application : mkvmerge v3.4.0 ('Rapunzel') сборка от May 15 2010 09:38:20
Writing library : libebml v0.8.0 + libmatroska v0.9.0
Video
ID : 1
Format : AVC
Format/Info : Advanced Video Codec
Format profile : High@L4.1
Format settings, CABAC : Yes
Format settings, ReFrames : 4 frames
Codec ID : V_MPEG4/ISO/AVC
Duration : 1h 16mn
Bit rate : 8 454 Kbps
Width : 1 920 pixels
Height : 1 080 pixels
Display aspect ratio : 16:9
Frame rate : 23.976 fps
Color space : YUV
Chroma subsampling : 4:2:0
Bit depth : 8 bits
Scan type : Progressive
Bits/(Pixel*Frame) : 0.170
Stream size : 4.53 GiB (91%)
Title : Rip by Ash61
Writing library : x264 core 113 r1884 7313bb5
Encoding settings : cabac=1 / ref=4 / deblock=1:-1:-1 / analyse=0x3:0x113 / me=umh / subme=9 / psy=1 / psy_rd=1.00:0.15 / mixed_ref=1 / me_range=16 / chroma_me=1 / trellis=2 / 8x8dct=1 / cqm=0 / deadzone=21,11 / fast_pskip=1 / chroma_qp_offset=-3 / threads=3 / sliced_threads=0 / nr=0 / decimate=1 / interlaced=0 / constrained_intra=0 / bframes=6 / b_pyramid=2 / b_adapt=2 / b_bias=0 / direct=3 / weightb=1 / open_gop=0 / weightp=2 / keyint=250 / keyint_min=23 / scenecut=40 / intra_refresh=0 / rc_lookahead=60 / rc=crf / mbtree=1 / crf=14.0 / qcomp=0.70 / qpmin=0 / qpmax=69 / qpstep=4 / ip_ratio=1.40 / aq=1:1.00
Audio
ID : 2
Format : AC-3
Format/Info : Audio Coding 3
Mode extension : CM (complete main)
Codec ID : A_AC3
Duration : 1h 16mn
Bit rate mode : Constant
Bit rate : 640 Kbps
Channel(s) : 6 channels
Channel positions : Front: L C R, Side: L R, LFE
Sampling rate : 48.0 KHz
Bit depth : 16 bits
Compression mode : Lossy
Stream size : 351 MiB (7%)
Language : Russian
Menu
00:00:00.000 : :1
00:15:21.254 : :2
00:26:19.411 : :3
00:40:31.596 : :4
00:54:12.624 : :5
01:06:25.773 : :6

Скриншоты




Господа копипастеры, уважайте труд рипперов - пожалуйста, указывайте авторство в своих релизах!
Остальные раздачи этого фильма (3)
Благодарности релизеру (37)

Торрент:

Статус:

Размер:

Зарегистрирован   [ 2011-10-14 13:19 ]

проверено

4.97 GB