Торренты   
 
 


6 Трейлеров 3D фильмов [2011 г., 1080p, DCPrip, Anamorph OverUnder]

Рейтинг 3D:
Пока никто не голосовал
Рейтинг фильма:
Пока никто не голосовал
 
Вы должны быть авторизированы,
чтобы ставить оценки


6 Трейлеров 3D фильмов
Год выпуска: 2011
Жанр: Трейлеры
Продолжительность: 00:12:15--
--Содержание:
1. Arthur-Christmas - Секретная служба Санта-Клауса
2. Puss-in-Boots - Кот в сапогах
3. РЖЕВСКИЙ против НАПОЛЕОНА
4. Three-Musketeers - Мушкетеры
5. John-Carter - Джон Картер
6. Hugo - Хранитель времени--Формат 3d: Anamorph OverUnder (левый ракурс верхний)
Качество: DCPrip
Контейнер: mkv
Видео: AVC / 1920х1080 / 23.976 fps / 10.2 Mbps
Аудио: Русский / AC3 / 6 ch / 448 Kbps / 48 KHz

MediaInfo:

Код:
General
Unique ID                        : 242831738585423974737595644545533645138 (0xB6AFB111DEC7B0819DE7B14E87929152)
Complete name                    : K:\Six.Trailers.3d.Half.OU.mkv
Format                           : Matroska
File size                        : 952 MiB
Duration                         : 12mn 15s
Overall bit rate                 : 10.9 Mbps
Encoded date                     : UTC 2011-10-16 06:35:47
Writing application              : mkvmerge v4.0.0 ('The Stars were mine') сборка от Jun  6 2010 16:18:42
Writing library                  : libebml v1.0.0 + libmatroska v1.0.0
Video
ID                               : 1
Format                           : AVC
Format/Info                      : Advanced Video Codec
Format profile                   : High@L4.1
Format settings, CABAC           : Yes
Format settings, ReFrames        : 4 frames
Codec ID                         : V_MPEG4/ISO/AVC
Duration                         : 12mn 15s
Bit rate                         : 10.2 Mbps
Width                            : 1 920 pixels
Height                           : 1 080 pixels
Display aspect ratio             : 16:9
Frame rate                       : 23.976 fps
Color space                      : YUV
Chroma subsampling               : 4:2:0
Bit depth                        : 8 bits
Scan type                        : Progressive
Bits/(Pixel*Frame)               : 0.205
Stream size                      : 894 MiB (94%)
Writing library                  : x264 core 116 r2074 2641b9e
Encoding settings                : cabac=1 / ref=4 / deblock=1:-3:-3 / analyse=0x3:0x113 / me=umh / subme=9 / psy=1 / psy_rd=1.00:0.15 / mixed_ref=1 / me_range=16 / chroma_me=1 / trellis=2 / 8x8dct=1 / cqm=0 / deadzone=21,11 / fast_pskip=1 / chroma_qp_offset=-3 / threads=6 / sliced_threads=0 / nr=0 / decimate=1 / interlaced=0 / bluray_compat=0 / constrained_intra=0 / bframes=6 / b_pyramid=2 / b_adapt=2 / b_bias=0 / direct=3 / weightb=1 / open_gop=0 / weightp=2 / keyint=250 / keyint_min=23 / scenecut=40 / intra_refresh=0 / rc_lookahead=40 / rc=crf / mbtree=1 / crf=18.0 / qcomp=0.60 / qpmin=10 / qpmax=61 / qpstep=4 / ip_ratio=1.40 / aq=1:1.00
Language                         : English
Audio
ID                               : 2
Format                           : AC-3
Format/Info                      : Audio Coding 3
Mode extension                   : CM (complete main)
Codec ID                         : A_AC3
Duration                         : 12mn 15s
Bit rate mode                    : Constant
Bit rate                         : 448 Kbps
Channel(s)                       : 6 channels
Channel positions                : Front: L C R, Side: L R, LFE
Sampling rate                    : 48.0 KHz
Bit depth                        : 16 bits
Compression mode                 : Lossy
Stream size                      : 39.3 MiB (4%)
Language                         : Russian

Скриншоты






Благодарности релизеру (3)

Торрент:

Статус:

Размер:

Зарегистрирован   [ 2011-10-16 11:23 ]

проверено

952 MB