Торренты   
 
 

 

Три богатыря и Шамаханская царица (Сергей Глезин) [2010 г., 720p, BDrip, OverUnder]

Рейтинг 3D:
8 голосов
7.5
Рейтинг фильма:
6 голосов
7.7
 
Вы должны быть авторизированы,
чтобы ставить оценки


Три богатыря и Шамаханская царица

Год выпуска: 2010
Страна: Россия
Жанр: мультфильм, комедия, приключения, семейный
Продолжительность: 01:16:43
Перевод: Не требуется
Русские субтитры: нет-Режиссер:
Сергей Глезин
Роли озвучивали:
Валерий Соловьев, Анна Геллер, Олег Куликович, Лия Медведева, Сергей Маковецкий, Константин Бронзит, Дмитрий Быковский, Дмитрий Высоцкий, Мария Цветкова, Игорь Шибанов-Описание:
Легендарная Шамаханская царица, которая сводила с ума многих царей и простых смертных, положила свой глаз и на Киевского князя. Тот заболел любовью странной по ней. Но чтобы доставить в целости и сохранности эту чудо-богиню в Киев-Град, срочно из отпуска вызывают всех троих, уже знакомых нам, богатырей: Алёшу Поповича, Добрыню Никитича и Илью Муромца. Теперь троица должна решить, как быть дальше? Вроде бы и слухи о царице ходят нелестные, и князя жаль.-Качество: BDrip
Контейнер: MKV
Формат 3D: OverUnder / Вертикальная стереопара
Видео кодек: x264
Аудио кодек: AC3
Видео: x264, 1280x1352, 23.976 кадр/сек, 4333 Кбит/сек
Аудио: русский; AC3, 6 каналов, 448 Кбит/сек, 48,0 КГц

СКРИНШОТЫ

MI


Общее
Уникальный идентификатор : 171640039020502346323269521723789168772 (0x8120AB48DCB4B3FC9F5FE0CB1B205084)
Полное имя : M:\3D-RuGroup\Три_богатыря_и_Шамаханская_царица.3D.2010.BD3DRip.720p.OU.x264.AC3.Rus.mkv
Формат : Matroska
Версия формата : Version 2
Размер файла : 2,61 Гбайт
Продолжительность : 1 ч. 16 м.
Общий поток : 4879 Кбит/сек
Название фильма : Три_богатыря_и_Шамаханская_царица.3D.2010.BD3DRip.720p.OU.x264.AC3.Rus
Дата кодирования : UTC 2011-10-16 11:04:31
Программа кодирования : mkvmerge v3.4.0 ('Rapunzel') сборка от May 15 2010 09:38:20
Библиотека кодирования : libebml v0.8.0 + libmatroska v0.9.0
Видео
Идентификатор : 1
Формат : AVC
Формат/Информация : Advanced Video Codec
Профиль формата : High@L4.0
Параметр CABAC формата : Да
Параметр ReFrames формата : 4 кадра
Идентификатор кодека : V_MPEG4/ISO/AVC
Продолжительность : 1 ч. 16 м.
Битрейт : 4333 Кбит/сек
Ширина : 1280 пикселей
Высота : 1352 пикселя
Соотношение сторон : 0,947
Частота кадров : 23,976 кадра/сек
Цветовое пространство : YUV
Субдискретизация насыщенности : 4:2:0
Битовая глубина : 8 бит
Тип развёртки : Прогрессивная
Бит/(Пиксели*Кадры) : 0.104
Размер потока : 2,32 Гбайт (89%)
Заголовок : Три богатыря и Шамаханская царица by itsamna (aka elephant, AnTo}{@)
Библиотека кодирования : x264 core 116 r2074 2641b9e
Настройки программы : cabac=1 / ref=4 / deblock=1:-3:-3 / analyse=0x3:0x133 / me=umh / subme=10 / psy=1 / psy_rd=1.00:0.10 / mixed_ref=1 / me_range=32 / chroma_me=1 / trellis=2 / 8x8dct=1 / cqm=0 / deadzone=21,11 / fast_pskip=0 / chroma_qp_offset=-3 / threads=3 / sliced_threads=0 / nr=0 / decimate=1 / interlaced=0 / bluray_compat=0 / constrained_intra=0 / bframes=7 / b_pyramid=2 / b_adapt=2 / b_bias=0 / direct=3 / weightb=1 / open_gop=0 / weightp=2 / keyint=250 / keyint_min=23 / scenecut=40 / intra_refresh=0 / rc_lookahead=40 / rc=crf / mbtree=1 / crf=16.5 / qcomp=0.70 / qpmin=0 / qpmax=51 / qpstep=4 / ip_ratio=1.40 / aq=1:0.90
Аудио
Идентификатор : 2
Формат : AC-3
Формат/Информация : Audio Coding 3
Расширение режима : CM (complete main)
Идентификатор кодека : A_AC3
Продолжительность : 1 ч. 16 м.
Вид битрейта : Постоянный
Битрейт : 448 Кбит/сек
Каналы : 6 каналов
Расположение каналов : Front: L C R, Side: L R, LFE
Частота : 48,0 КГц
Битовая глубина : 16 бит
Метод сжатия : С потерями
Размер потока : 246 Мбайт (9%)
Заголовок : Русский AC3 5.1 448 Кбит/сек
Язык : Russian
Меню
00:00:00.000 : :CHAPTER01
00:15:21.254 : :CHAPTER02
00:26:19.411 : :CHAPTER03
00:40:31.596 : :CHAPTER04
00:54:12.624 : :CHAPTER05
01:06:25.773 : :CHAPTER06

НА ВСТРОЕННЫХ ПЛЕЕРАХ РАБОТАТЬ НЕ БУДЕТ!!!
Остальные раздачи этого фильма (3)
Благодарности релизеру (3)

Торрент:

Статус:

Размер:

Зарегистрирован   [ 2011-10-16 15:54 ]

проверено

2.61 GB

 
 Мнение о фильме (3)





спасибо отличный мульт)
 

спасибо отличный мульт
 

Спасибо! Мультик просто супер!