Торренты   
 
 


Врата в 3D / The Hole [2009г, 1080p, BDrip, OverUnder]

Рейтинг 3D:
1 голосов
6.0
Рейтинг фильма:
1 голосов
6.0
 
Вы должны быть авторизированы,
чтобы ставить оценки


Врата в 3D
The Hole

Год выпуска: 2009
Страна: США (Medusa Mediaset Group)
Жанр: Ужасы, Триллер, Комедия
Продолжительность: 01:32:37
Перевод: Профессиональный (полное дублирование)
Режиссер: Джо Данте / Joe Dante
В ролях: Крис Дж. Келли, Хейли Беннетт, Натан Гэмбл, Тери Поло, Брюс Дерн, Куинн Лорд, Джон ДеСантис, Дуглас Чэпман, Марк Поусон
Описание: Куда уж хуже! — именно так думает 17-ти летний Дени и его 10-ти летний брат Лукас, когда мать перевозит их из Нью-Йорка в сонный городишко Бенсонвиль. Не спеши расстраиваться Дени: твоя новая соседка Джули очень даже ничего. Мама всё больше пропадает на работе, ей некогда заниматься детьми, и братья находят себе занятие: исследовать своё новое место жительства. Дени всё больше интересуется Джулией, и всё меньше своим младшим братом.
Но всё изменится, когда они найдут зловещую бездонную дыру, закрытую люком в подвале. И открыв крышку люка, братьев пронизывает леденящий сердце холод — этот бездонный колодец является вратами в миры тьмы. И теперь, когда они выпустили зло на волю, в каждой тени оживут их потаённые страхи, и им придётся встретится лицом к лицу с ужасом, чтобы закрыть врата навсегда.На встроенных плейерах ТВ не будет работать Формат 3d: OverUnder
Качество: BDrip
Контейнер: MKV
Видео: AVC / 1920х2080p / 23,976 fps / 22.8 Mbps
Аудио#1: Русский / AC3 / 48 KHz / 5.1 ch / 448 Kbps
Аудио#2: Английский / AC3 / 48 KHz / 5.1 ch / 640 Kbps

MediaInfo

General
UniqueID : 230700030321765302537659732000744579026 (0xAD8F35AC10F7E1989F36FCADA5DA9FD2)
Complete name : F:\Downloads\Hole.3D.OU.AC3-ash61.mkv
Format : Matroska
File size : 15.8 GiB
Duration : 1h 32mn
Overall bit rate : 24.4 Mbps
Movie name : Hole (ash61)
Encoded date : UTC 2011-10-17 19:34:17
Writing application : mkvmerge v3.4.0 ('Rapunzel') сборка от May 15 2010 09:38:20
Writing library : libebml v0.8.0 + libmatroska v0.9.0
Video
ID : 1
Format : AVC
Format/Info : Advanced Video Codec
Format profile : High@L5.0
Format settings, CABAC : Yes
Format settings, ReFrames : 5 frames
Codec ID : V_MPEG4/ISO/AVC
Duration : 1h 32mn
Bit rate : 22.8 Mbps
Width : 1 920 pixels
Height : 2 080 pixels
Display aspect ratio : 0.923
Frame rate : 23.976 fps
Color space : YUV
Chroma subsampling : 4:2:0
Bit depth : 8 bits
Scan type : Progressive
Bits/(Pixel*Frame) : 0.238
Stream size : 14.7 GiB (94%)
Title : Rip by Ash61
Writing library : x264 core 113 r1884 7313bb5
Encoding settings : cabac=1 / ref=5 / deblock=1:-3:-3 / analyse=0x3:0x113 / me=umh / subme=9 / psy=1 / psy_rd=1.00:0.15 / mixed_ref=1 / me_range=16 / chroma_me=1 / trellis=2 / 8x8dct=1 / cqm=0 / deadzone=21,11 / fast_pskip=1 / chroma_qp_offset=-3 / threads=3 / sliced_threads=0 / nr=0 / decimate=1 / interlaced=0 / constrained_intra=0 / bframes=6 / b_pyramid=2 / b_adapt=2 / b_bias=0 / direct=3 / weightb=1 / open_gop=0 / weightp=2 / keyint=250 / keyint_min=23 / scenecut=40 / intra_refresh=0 / rc_lookahead=40 / rc=crf / mbtree=1 / crf=18.0 / qcomp=0.60 / qpmin=10 / qpmax=51 / qpstep=4 / ip_ratio=1.40 / aq=1:1.00
Audio #1
ID : 2
Format : AC-3
Format/Info : Audio Coding 3
Mode extension : CM (complete main)
Codec ID : A_AC3
Duration : 1h 32mn
Bit rate mode : Constant
Bit rate : 448 Kbps
Channel(s) : 6 channels
Channel positions : Front: L C R, Side: L R, LFE
Sampling rate : 48.0 KHz
Bit depth : 16 bits
Compression mode : Lossy
Stream size : 297 MiB (2%)
Language : Russian
Audio #2
ID : 3
Format : AC-3
Format/Info : Audio Coding 3
Mode extension : CM (complete main)
Codec ID : A_AC3
Duration : 1h 32mn
Bit rate mode : Constant
Bit rate : 640 Kbps
Channel(s) : 6 channels
Channel positions : Front: L C R, Side: L R, LFE
Sampling rate : 48.0 KHz
Bit depth : 16 bits
Compression mode : Lossy
Stream size : 424 MiB (3%)
Language : English

Скриншоты

Господа копипастеры, уважайте труд рипперов - пожалуйста, указывайте авторство в своих релизах!
Благодарности релизеру (1)

Торрент:

Статус:

Размер:

Зарегистрирован   [ 2011-10-18 02:26 ]

проверено

15.77 GB