Торренты   
 
 


Первый мститель 3D/ Captain America: The First Avenger 3D [2011 г.,BDRip, 1080, FAB, Anamorph OverUnder]

Рейтинг 3D:
Пока никто не голосовал
Рейтинг фильма:
Пока никто не голосовал
 
Вы должны быть авторизированы,
чтобы ставить оценки


Первый мститель / Captain America: The First Avenger
Год выпуска: 2011
Страна: Marvel Enterprises, Marvel Entertainment, Marvel Studios (США)
Жанр: фантастика, боевик, триллер, приключения
Продолжительность: 2:04:11
Перевод: Профессиональный (полное дублирование)
Режиссер: Джо Джонстон
В ролях: Крис Эванс, Хейли Этвелл, Себастиан Стэн, Томми Ли Джонс, Хьюго Уивинг, Доминик Купер, Ричард Армитэдж, Стенли Туччи, Сэмюэл Л. Джексон, Тоби Джонс
Описание: Стив Роджерс добровольно соглашается принять участие в эксперименте, который превратит его в супер солдата, известного как Первый мститель. Роджерс вступает в вооруженные силы США вместе с Баки Барнсом и Пегги Картер, чтобы бороться с враждебной организацией ГИДРА, которой управляет безжалостный Красный Череп...
Доп. информация:
Сделано с помощью DVDFab 8 Qt
Образ диска "АДмин's Edition" c BlueBird.
Возможно потребуется поменять ракурсы изображения местами!
Формат 3d: Anamorph OverUnder
Качество: BDrip
Контейнер: MKV
Видео: AVC, 1920 x 1080, 23.976 fps, 10.3 Mbps
Аудио: Русский, AC3, 48 KHz, 5.1 ch, 640 Kbps

Скриншоты




MediaInfo

General
Unique ID : 210281675797699904941844941104299356390 (0x9E32C711F04A94F09F448EC33C77B0E6)
Complete name : E:\3 D\mkv\Капитан Америка_Первый мститель.3D.2011.BDRip.FAB.avs1961\Captain America_The First Avenger.3D.2011.BDRip.FAB.avs1961.mkv
Format : Matroska
File size : 9.67 GiB
Duration : 2h 4mn
Overall bit rate : 11.1 Mbps
Movie name : CAPTAIN_AMERICA_3D_BLUEBIRD.Title3.Bluray3DRip
Encoded date : UTC 2011-10-18 03:59:33
Writing application : DVDFab
Writing library : libebml v0.7.8 + libmatroska v0.8.1
Video
ID : 1
Format : AVC
Format/Info : Advanced Video Codec
Format profile : High@L5.1
Format settings, CABAC : Yes
Format settings, ReFrames : 2 frames
Codec ID : V_MPEG4/ISO/AVC
Duration : 2h 4mn
Bit rate mode : Variable
Bit rate : 10.3 Mbps
Maximum bit rate : 15.7 Mbps
Width : 1 920 pixels
Height : 1 080 pixels
Display aspect ratio : 16:9
Frame rate : 23.976 fps
Color space : YUV
Chroma subsampling : 4:2:0
Bit depth : 8 bits
Scan type : Progressive
Bits/(Pixel*Frame) : 0.207
Stream size : 8.92 GiB (92%)
Audio
ID : 2
Format : AC-3
Format/Info : Audio Coding 3
Mode extension : CM (complete main)
Codec ID : A_AC3
Duration : 2h 4mn
Bit rate mode : Constant
Bit rate : 640 Kbps
Channel(s) : 6 channels
Channel positions : Front: L C R, Side: L R, LFE
Sampling rate : 48.0 KHz
Bit depth : 16 bits
Compression mode : Lossy
Stream size : 568 MiB (6%)
Language : Russian
Menu
00:00:00.000 : en:(01)00:00:00:000
00:08:12.158 : en:(02)00:08:12:158
00:14:56.812 : en:(03)00:14:56:812
00:24:21.543 : en:(04)00:24:21:543
00:30:39.128 : en:(05)00:30:39:128
00:38:39.859 : en:(06)00:38:39:859
00:45:52.166 : en:(07)00:45:52:166
00:51:58.156 : en:(08)00:51:58:156
00:57:55.638 : en:(09)00:57:55:638
01:03:59.293 : en:(10)01:03:59:293
01:12:22.588 : en:(11)01:12:22:588
01:19:10.662 : en:(12)01:19:10:662
01:28:27.051 : en:(13)01:28:27:051
01:33:53.002 : en:(14)01:33:53:002
01:42:20.342 : en:(15)01:42:20:342
01:50:45.055 : en:(16)01:50:45:055
01:53:46.319 : en:(17)01:53:46:319
02:04:11.360 : en:(18)02:04:11:360
Благодарности релизеру (0)

Торрент:

Статус:

Размер:

Зарегистрирован   [ 2011-10-18 20:44 ]

x закрыто

9.67 GB

 
Комментарии:

1, 2, 3  След.






avs1961 Огромное спасибо!
 

А у меня фаб перестал конвертировать, на всех недавно вышедших дисках ошибку выдаёт. Я уже и пытаться перестал. Есть какой-то секрет, или мне просто не везло?
 

А у меня фаб перестал конвертировать, на всех недавно вышедших дисках ошибку выдаёт. Я уже и пытаться перестал. Есть какой-то секрет, или мне просто не везло?
Попробуй старую версию ну например 8.100 beta и не используй патч, пройдет срок месяц просто удали и установи заново.
Один недостаток в верхнем левом углу логотип DVDFab периодически появляется
 

Дмитрий К.
У меня стояла предыдущая версия - тоже выделывалась. Взял эту - и встала и работает вроде нормально.
 

А когда нормальный релиз ждать,не фабовский??
 

как фильм? блюрей скачал но не смотрел еще
 

wowwan
Это вопрос к Мастерам, я не умею.
Аnатоliy052
Сам только сейчас смотреть буду, промотал по кадрам - но от этого впечатления не составишь. :)
 

Ходил на этот фильм в кино. Сам фильм для серии марвел неплохой. Как обычно смазливо патриотичный, глупый, но есть некоторые идеи, которые не дают зевать. Плюс стилистика. 3Д там для галочки, типовой конверт, ни хороший, ни плохой.
 

Я вчера начал смотреть 2D версию, так там капитан Америка бежит по парковке, где много фрицов- с флагом Американским на спине, и его никто не замечет! ахахахахахахахах, я плакал:)
 

По ходу такой же гавноконверт как и Фонарь. За релиз СПАСИБО!!!
 

ortonnn фонарь лучше конвертирован, как мне показалось. Или там просто дальних планов намного больше, поэтому ощущения были лучше.
 

Спасибо.
 

Спасибо. А как поменять ракурсы местами на телевизоре Самсунг .
 

Посмотрим!)
 

astash
В настройках изображения - 3D - коррекция изображения
просто нажать и все
Но я, честно признаюсь, так и не понял у себя: надо менять или нет :)
 

Посмотрел... Комиксы... Настоящие комиксы... Но смотреть, даже не любителям жанра, можно.
3D присутствует, но на фабовском рипе окончательно понять сложно, подождем релиза Мастеров.
 

avs1961, судя по скринам, действительно правый ракурс сверху.
 

Никто не сделает как надо? Всё-равно ФАБ такого фильма наверняка переделают...
 

В конце фильма (после всех титров) было заявлено, что Капитан Америка появится летом 2012 в фильме "Мститель" с Железным человеком и Тором. По крайнер мере, я понял это так.
 

интересное кино. мне понравилось. смотрел блюрей, мне показалось что 3Д на уровне.
 

Страница 1 из 3

1, 2, 3  След.