Торренты   
 
 

 

Первый мститель / Captain America: The First Avenger (Джо Джонстон / Joe Johnston) [2011г, 1080p, BDrip, Anamorph OverUnder]

Рейтинг 3D:
49 голосов
7.0
Рейтинг фильма:
49 голосов
7.6
 
Вы должны быть авторизированы,
чтобы ставить оценки


Первый мститель
Captain America: The First Avenger

Год выпуска: 2011
Страна, Студии: США (Paramount, Marvel Studios)
Жанр: Фантастика, Боевик, Приключения
Продолжительность: 02:04:10
Перевод: Профессиональный (полное дублирование)
Субтитры: Русские форсированные, русские полные и английские полные
Режиссер: Джо Джонстон / Joe Johnston
В ролях: Крис Эванс, Томми Ли Джонс, Хьюго Уивинг, Доминик Купер, Нил МакДонаф, Дерек Люк, Стенли Туччи, Хейли Этвелл, Себастиан Стэн, Ричард Армитэдж, Сэмюэл Л. Джексон, Тоби Джонс
Роли дублировали: Даниил Эльдаров, Михаил Георгиу, Александр Груздев, Дмитрий Поляновский, Пётр Иващенко, Никита Прозоровский, Анастасия Нестеренко, Илья Бледный, Василий Дахненко, Владимир Антоник, Сергей Балабанов
Описание: Стив Роджерс добровольно соглашается принять участие в эксперименте, который превратит его в супер солдата, известного как Первый мститель. Роджерс вступает в вооруженные силы США вместе с Баки Барнсом и Пегги Картер, чтобы бороться с враждебной организацией ГИДРА, которой управляет безжалостный Красный Череп.

Знаете ли вы, что...

На пост режиссера «Капитана Америки» изначально был приглашен Джон Фавро, но он предпочел поработать над «Железным человеком». Снять фильм мог так же Ник Кассаветис. Луи Летерье был не против поработать над этой картиной, но студия Marvel отказала ему.
На главную роль пробовались: Джон Красински, Майк Фогель, Чейс Кроуфорд, Гаррет Хедлунд, Чаннинг Татум, Уилл Бретел Скотт Портер, Майкл Кэссиди и Патрик Флюгер. Рассматривались кандидатуры Леонардо ДиКаприо, Дженсена Эклза, Джон Сина и Мэттью МакКонахи.
Капитан Америка был создан писателем Джо Саймоном и художником Джеком Кирби и впервые появился в комиксе «Captain America Comics» #1 (март 1941).
Себастиан Стэн рассматривался на роль Капитана Америки, но в итоге получил роль Баки.
Крис Эванс отказывался от роли три раза, прежде чем принять участие. После этого он встретился с директором и продюсером, которые убедили его взять на себя роль.
Для подготовки к своей роли Пегги Картер, Хейли Этвелл тренировалась шесть дней в неделю.
Элис Ив и Кира Найтли рассматривались на роль Пегги Картер. Эмили Блант отказалась от этой роли.
Во всём мире фильм выходит с полным названием «Капитан Америка: Первый Мститель», и только в России, Южной Корее и Украине картина будет называться просто «Первый мститель».
Когда Timely Comics начала печатать «Капитана Америку», в адрес создателей комикса стали поступать письма и звонки с угрозами от американских фанатов Гитлера.
Проверено на встроенном плейере ТВ Samsung UE-C7000
Формат 3d: Anamorph OverUnder
Качество: BDrip
Контейнер: MKV
Видео: AVC / 1920х1080p / 23,976 fps / 12.4 Mbps
Аудио#1: Русский / AC3 / 48 KHz / 5.1 ch / 640 Kbps
Аудио#2: Английский / AC3 / 48 KHz / 5.1 ch / 640 Kbps
Субтитры: внешние srt (по умолчанию включены русские форсированные)

MediaInfo

General
UniqueID : 223506781616772298264778742994551343379 (0xA825D7211B9D7EB1B06D3BBB72EE8913)
Complete name : F:\Downloads\Captain.America.The.First.Avenger-3D.2011.halfOU.AC3-ash61\Captain.America.The.First.Avenger-3D.2011.halfOU.AC3-ash61.mkv
Format : Matroska
File size : 12.1 GiB
Duration : 2h 4mn
Overall bit rate : 13.9 Mbps
Movie name : Captain America: The First Avenger (ash61)
Encoded date : UTC 2011-10-20 08:39:17
Writing application : mkvmerge v3.4.0 ('Rapunzel') сборка от May 15 2010 09:38:20
Writing library : libebml v0.8.0 + libmatroska v0.9.0
Video
ID : 1
Format : AVC
Format/Info : Advanced Video Codec
Format profile : High@L4.1
Format settings, CABAC : Yes
Format settings, ReFrames : 4 frames
Codec ID : V_MPEG4/ISO/AVC
Duration : 2h 4mn
Bit rate : 12.4 Mbps
Width : 1 920 pixels
Height : 1 080 pixels
Display aspect ratio : 16:9
Frame rate : 23.976 fps
Color space : YUV
Chroma subsampling : 4:2:0
Bit depth : 8 bits
Scan type : Progressive
Bits/(Pixel*Frame) : 0.249
Stream size : 10.7 GiB (89%)
Title : Rip by Ash61
Writing library : x264 core 113 r1884 7313bb5
Encoding settings : cabac=1 / ref=4 / deblock=1:-3:-3 / analyse=0x3:0x113 / me=umh / subme=9 / psy=1 / psy_rd=1.00:0.15 / mixed_ref=1 / me_range=16 / chroma_me=1 / trellis=2 / 8x8dct=1 / cqm=0 / deadzone=21,11 / fast_pskip=1 / chroma_qp_offset=-3 / threads=3 / sliced_threads=0 / nr=0 / decimate=1 / interlaced=0 / constrained_intra=0 / bframes=6 / b_pyramid=2 / b_adapt=2 / b_bias=0 / direct=3 / weightb=1 / open_gop=0 / weightp=2 / keyint=250 / keyint_min=23 / scenecut=40 / intra_refresh=0 / rc_lookahead=60 / rc=crf / mbtree=1 / crf=18.0 / qcomp=0.70 / qpmin=0 / qpmax=69 / qpstep=4 / ip_ratio=1.40 / aq=1:1.00
Audio #1
ID : 2
Format : AC-3
Format/Info : Audio Coding 3
Mode extension : CM (complete main)
Codec ID : A_AC3
Duration : 2h 4mn
Bit rate mode : Constant
Bit rate : 640 Kbps
Channel(s) : 6 channels
Channel positions : Front: L C R, Side: L R, LFE
Sampling rate : 48.0 KHz
Bit depth : 16 bits
Compression mode : Lossy
Stream size : 569 MiB (5%)
Title : Дубляж
Language : Russian
Audio #2
ID : 3
Format : AC-3
Format/Info : Audio Coding 3
Mode extension : CM (complete main)
Codec ID : A_AC3
Duration : 2h 4mn
Bit rate mode : Constant
Bit rate : 640 Kbps
Channel(s) : 6 channels
Channel positions : Front: L C R, Side: L R, LFE
Sampling rate : 48.0 KHz
Bit depth : 16 bits
Compression mode : Lossy
Stream size : 569 MiB (5%)
Language : English
Menu
00:00:00.000 : :01
00:08:12.158 : :02
00:14:56.813 : :03
00:24:21.543 : :04
00:30:39.129 : :05
00:38:39.859 : :06
00:45:52.166 : :07
00:51:58.157 : :08
00:57:55.639 : :09
01:03:59.294 : :10
01:12:22.588 : :11
01:19:10.663 : :12
01:28:27.052 : :13
01:33:53.002 : :14
01:42:20.343 : :15
01:50:45.055 : :16
01:53:46.319 : :17

Скриншоты

Господа копипастеры, уважайте труд рипперов - пожалуйста, указывайте авторство в своих релизах!
Остальные раздачи этого фильма (6)
Благодарности релизеру (34)

Торрент:

Статус:

Размер:

Зарегистрирован   [ 2011-10-20 16:53 ]

проверено

12.09 GB