Торренты   
 
 

 

Тачки 2 / Cars 2 (Джон Лассетер, Брэд Льюис) [2011 г., мультфильм, семейный, Anamorph SideBySide]

Рейтинг 3D:
2 голосов
9.0
Рейтинг фильма:
1 голосов
10
 
Вы должны быть авторизированы,
чтобы ставить оценки


Тачки 2 / Cars 2
Год выпуска: 2011
Страна: США (walt disney and pixar)
Жанр: мультфильм
Продолжительность: 1ч 46мин
Перевод: Профессиональный (полное дублирование)
Режиссеры: Джон Лассетер, Брэд Льюис
Роли озвучивали: Оуэн Уилсон, Ларри Кейбл Гай, Майкл Кейн, Эмили Мортимер, Эдди Иззард, Джон Туртурро, Брент Мусбургер, Джо Мантенья, Томас Кречманн, Питер Джекобсон
Описание: Молния МакКуин и его друг Мэтр отправляются в международное путешествие — когда МакКуин получает шанс участвовать в соревнованиях для самых быстрых машин в мире, Мировом Гран-При. Этапы этих престижных гонок заведут друзей в Токио, на набережные Парижа, на побережье Италии, и на улицы туманного Лондона
Формат 3d: Anamorph SideBySide
Видео: 1920x1080, AVC, 48 fps, 11.9 Mbps
Аудио: 44.1 kHz, AC3, 2 ch, 128 kbps, 16 bit

MediaInfo

General
Unique ID : 168348648403719580577546155723716462494 (0x7EA6C532C2870C1E037BA147C20E879E)
Complete name : C:\Users\igor\Videos\Cars.2.3D.2011.HSBS.H264.1080p.rus.AC3.mkv
Format : Matroska
Format version : Version 2
File size : 9.09 GiB
Duration : 1h 46mn
Overall bit rate : 12.3 Mbps
Writing application : Lavf51.12.1
Writing library : Lavf51.12.1
Video
ID : 1
Format : AVC
Format/Info : Advanced Video Codec
Format profile : Baseline@L1.3
Format settings, CABAC : No
Format settings, ReFrames : 1 frame
Format settings, GOP : M=1, N=12
Codec ID : V_MPEG4/ISO/AVC
Duration : 1h 46mn
Bit rate : 11.9 Mbps
Width : 1 920 pixels
Height : 1 080 pixels
Display aspect ratio : 16:9
Frame rate : 47.952 fps
Color space : YUV
Chroma subsampling : 4:2:0
Bit depth : 8 bits
Scan type : Progressive
Bits/(Pixel*Frame) : 0.120
Stream size : 8.81 GiB (97%)
Language : Russian
Audio
ID : 2
Format : AC-3
Format/Info : Audio Coding 3
Mode extension : CM (complete main)
Codec ID : A_AC3
Duration : 1h 46mn
Bit rate mode : Constant
Bit rate : 128 Kbps
Channel(s) : 2 channels
Channel positions : Front: L R
Sampling rate : 44.1 KHz
Bit depth : 16 bits
Compression mode : Lossy
Stream size : 97.2 MiB (1%)
Language : Russian

Скриншоты




Благодарности релизеру (0)

Торрент:

Статус:

Размер:

Зарегистрирован   [ 2011-10-21 00:11 ]

© закрыто правообладателем

9.09 GB