Торренты   
 
 

 

Три богатыря и Шамаханская царица (Сергей Глезин) [2010 г., BDRip 1080p, Full OverUnder]

Рейтинг 3D:
8 голосов
7.5
Рейтинг фильма:
6 голосов
7.7
 
Вы должны быть авторизированы,
чтобы ставить оценки


Три богатыря и Шамаханская царица
Год выпуска: 2010
Страна: Россия
Жанр: ультфильм, Комедия, Приключения, Семейный
Продолжительность: 01:16:42
Перевод: Не требуется
Режиссер: Сергей Глезин
В ролях: Дмитрий Быковский-Ромашов (Илья Муромец), Валерий Соловьев (Добрыня Никитич), Олег Куликович (Алеша Попович / Змей Горыныч), Сергей Маковецкий (князь Киевский), Анна Геллер (Шамаханская царица), Дмитрий Высоцкий (конь Юлий), Константин Бронзит (ворон), Мария Цветкова-Овсянникова (Аленушка), Елена Шульман (Настасья), Лия Медведева (Любава), Игорь Шибанов (советник), Анатолий Петров (Тихон / сэнсэй), Сергей Глезин ('нормальный парень'), Михаил Черняк (рассказчик)
Описание: Легендарная Шамаханская царица, которая сводила с ума многих царей и простых смертных, положила свой глаз и на Киевского князя. Тот заболел любовью странной по ней. Но чтобы доставить в целости и сохранности эту чудо-богиню в Киев-Град, срочно из отпуска вызывают всех троих, уже знакомых нам, богатырей: Алёшу Поповича, Добрыню Никитича и Илью Муромца. Теперь троица должна решить, как быть дальше? Вроде бы и слухи о царице ходят нелестные, и князя жаль.

Формат 3d: OverUnder
Видео: AVC, h264, 1920х2096 , 23,976 кадр/сек, 7971 Кбит/сек
Аудио: Rus, AC-3, 6 каналов, 640 Кбит/сек, 48,0 КГц

Скриншоты



mi

Полное имя : Три богатыря и Шамаханская царица 1080p.mkv
Формат : Matroska
Размер файла : 4,71 Гбайт
Продолжительность : 1 ч. 16 м.
Общий поток : 8786 Кбит/сек
Дата кодирования : UTC 2011-10-21 08:34:16
Программа кодирования : mkvmerge v3.4.0 ('Rapunzel') сборка от May 15 2010 09:38:20
Библиотека кодирования : libebml v0.8.0 + libmatroska v0.9.0
Видео
Идентификатор : 1
Формат : AVC
Формат/Информация : Advanced Video Codec
Профиль формата : High@L5.0
Параметр CABAC формата : Да
Параметр ReFrames формата : 4 кадры
Идентификатор кодека : V_MPEG4/ISO/AVC
Продолжительность : 1 ч. 16 м.
Битрейт : 7971 Кбит/сек
Ширина : 1920 пикс.
Высота : 2096 пикс.
Соотношение сторон : 0,916
Частота кадров : 23,976 кадр/сек
Цветовое пространство : YUV
Подвыборка цветности : 4:2:0
Битовая глубина : 8 бит
Тип развёртки : Прогрессивная
Бит/(Пиксели*Кадры) : 0.083
Размер потока : 4,27 Гбайт (91%)
Библиотека кодирования : x264 core 116 r2074 2641b9e
Настройки программы : cabac=1 / ref=4 / deblock=1:-3:-3 / analyse=0x3:0x113 / me=umh / subme=9 / psy=1 / psy_rd=1.00:0.00 / mixed_ref=1 / me_range=16 / chroma_me=1 / trellis=2 / 8x8dct=1 / cqm=0 / deadzone=21,11 / fast_pskip=1 / chroma_qp_offset=-3 / threads=9 / sliced_threads=0 / nr=0 / decimate=1 / interlaced=0 / bluray_compat=0 / constrained_intra=0 / bframes=6 / b_pyramid=0 / b_adapt=2 / b_bias=0 / direct=3 / weightb=1 / open_gop=0 / weightp=2 / keyint=250 / keyint_min=23 / scenecut=40 / intra_refresh=0 / rc_lookahead=40 / rc=crf / mbtree=1 / crf=18.0 / qcomp=0.60 / qpmin=0 / qpmax=69 / qpstep=4 / frame-packing=4 / ip_ratio=1.40 / aq=1:1.00
Язык : English
Аудио
Идентификатор : 2
Формат : AC-3
Формат/Информация : Audio Coding 3
Расширение режима : CM (complete main)
Идентификатор кодека : A_AC3
Продолжительность : 1 ч. 16 м.
Вид битрейта : Постоянный
Битрейт : 640 Кбит/сек
Канал(ы) : 6 канала(ов)
Расположение каналов : Front: L C R, Side: L R, LFE
Частота : 48,0 КГц
Битовая глубина : 16 бит
Метод сжатия : С потерями
Размер потока : 351 Мбайт (7%)
Язык : Russian
Скриншоты сравнения
Остальные раздачи этого фильма (3)
Благодарности релизеру (2)

Торрент:

Статус:

Размер:

Зарегистрирован   [ 2011-10-21 12:50 ]

проверено

4.71 GB

 
 Мнение о фильме (3)





спасибо отличный мульт)
 

спасибо отличный мульт
 

Спасибо! Мультик просто супер!