Торренты   
 
 

 

Гадкий Я / Despicable Me (Пьер Соффин / Pierre Coffin, Крис Рено / Chris Renaud) [2010 г., Anamorph OverUnder]

Рейтинг 3D:
85 голосов
8.2
Рейтинг фильма:
89 голосов
8.5
 
Вы должны быть авторизированы,
чтобы ставить оценки


Гадкий Я / Despicable Me
Год выпуска: 2010
Страна: США
Жанр: комедия, семейный, мультфильм
Продолжительность: 01:35:18
Перевод: Профессиональный (полное дублирование)
Режиссер: Пьер Соффин / Pierre Coffin, Крис Рено / Chris Renaud
Роли озвучивали: : Стив Карелл, Джейсон Сигел, Расселл Брэнд, Джули Эндрюс, Уилл Арнетт, Кристен Уиг, Миранда Косгров, Дэна Гайер, Элси Фишер, Пьер Соффин
Роли дублировали: Леонид Ярмольник, Марк Тишман, Михаил Георгиу, Наталья Гурзо, Алексей Колган ...
Описание: Гадкий снаружи, но добрый внутри Грю намерен, тем не менее, закрепить за собой статус главного архизлодея в мире, для чего он решает выкрасть Луну при помощи созданной им армии миньонов. Дело осложняют конкуренты, вставляющие высокотехнические палки в колеса, и семейные обстоятельства в виде трех сироток, о которых Грю вынужден заботиться.
Формат 3d: Anamorph OverUnder
Видео: AVC / 1920х1080p / 23,976 fps / 6444 Кбит/сек
Аудио: Русский / AC3 / 48 KHz / 5.1 ch / 640 Kbps

Скрины



Gif анимация

МИ

Общее
Уникальный идентификатор : 238200388197897390634112817505436906211 (0xB333B9DDB981BF5E8CF85682C66B32E3)
Полное имя : Гадкий я_Half_OU.mkv
Формат : Matroska
Размер файла : 4,78 Гбайт
Продолжительность : 1 ч. 34 м.
Общий поток : 7228 Кбит/сек
Дата кодирования : UTC 2011-10-21 19:01:34
Программа кодирования : mkvmerge v5.0.0 ('Die Wahre Liebe') built on Sep 25 2011 20:33:49
Библиотека кодирования : libebml v1.2.2 + libmatroska v1.3.0
Видео
Идентификатор : 1
Формат : AVC
Формат/Информация : Advanced Video Codec
Профиль формата : High@L4.0
Параметр CABAC формата : Да
Параметр ReFrames формата : 4 кадры
Идентификатор кодека : V_MPEG4/ISO/AVC
Продолжительность : 1 ч. 34 м.
Битрейт : 6444 Кбит/сек
Ширина : 1920 пикс.
Высота : 1080 пикс.
Соотношение сторон : 16:9
Частота кадров : 23,976 кадр/сек
Цветовое пространство : YUV
Подвыборка цветности : 4:2:0
Битовая глубина : 8 бит
Тип развёртки : Прогрессивная
Бит/(Пиксели*Кадры) : 0.130
Размер потока : 4,26 Гбайт (89%)
Заголовок : Rip By TopGun
Библиотека кодирования : x264 core 116 r2074 2641b9e
Настройки программы : cabac=1 / ref=4 / deblock=1:-1:-1 / analyse=0x3:0x133 / me=umh / subme=10 / psy=1 / psy_rd=1.00:0.10 / mixed_ref=1 / me_range=16 / chroma_me=1 / trellis=2 / 8x8dct=1 / cqm=0 / deadzone=21,11 / fast_pskip=0 / chroma_qp_offset=-3 / threads=6 / sliced_threads=0 / nr=0 / decimate=1 / interlaced=0 / bluray_compat=0 / constrained_intra=0 / bframes=7 / b_pyramid=2 / b_adapt=2 / b_bias=0 / direct=3 / weightb=1 / open_gop=0 / weightp=2 / keyint=250 / keyint_min=23 / scenecut=40 / intra_refresh=0 / rc_lookahead=40 / rc=crf / mbtree=1 / crf=18.0 / qcomp=0.70 / qpmin=10 / qpmax=69 / qpstep=4 / frame-packing=4 / ip_ratio=1.40 / aq=1:0.90
Язык : English
Аудио
Идентификатор : 2
Формат : AC-3
Формат/Информация : Audio Coding 3
Расширение режима : CM (complete main)
Идентификатор кодека : A_AC3
Продолжительность : 1 ч. 34 м.
Вид битрейта : Постоянный
Битрейт : 640 Кбит/сек
Канал(ы) : 6 канала(ов)
Расположение каналов : Front: L C R, Side: L R, LFE
Частота : 48,0 КГц
Битовая глубина : 16 бит
Метод сжатия : С потерями
Размер потока : 433 Мбайт (9%)
Заголовок : Дубляж АС-3
Язык : Russian
Меню
00:00:00.000 : :00:00:00.000
00:03:22.411 : :00:03:22.411
00:06:31.891 : :00:06:31.891
00:12:05.099 : :00:12:05.099
00:13:50.496 : :00:13:50.496
00:18:38.826 : :00:18:38.826
00:23:06.844 : :00:23:06.844
00:25:56.221 : :00:25:56.221
00:30:40.839 : :00:30:40.839
00:34:48.753 : :00:34:48.753
00:39:43.047 : :00:39:43.047
00:43:38.366 : :00:43:38.366
00:48:19.188 : :00:48:19.188
00:52:52.503 : :00:52:52.503
00:56:46.111 : :00:56:46.111
01:02:08.016 : :01:02:08.016
01:09:23.868 : :01:09:23.868
01:16:25.456 : :01:16:25.456
01:22:41.582 : :01:22:41.582
01:27:35.375 : :01:27:35.375
Внимание! У кого на ТВ не показывает, не прет, не воспроизводит, не кажет, итд... прогоняем через MKVmergeGUI используя за основу эту инструкцию - MKVmergeGUI (инструкция по основным операциям редактирования) - Если не помогает, удаляем главы по этой же инструкции!
Остальные раздачи этого фильма (4)
Благодарности релизеру (18)

Торрент:

Статус:

Размер:

Зарегистрирован   [ 2012-05-06 21:26 ]

проверено

4.78 GB

 
 Мнение о фильме (15)





Хороший мультик, яркий, 3D-эффекты присутствуют.
 

Отличный мульт! Смотреть всем! Эффекты замечтательные.
 

Классный мульт, очень веселый.
 

Спасибо за раздачу! Отличный мультик, душевное 3D. Или наоборот.
 

Мульт суперский
 

GOOD
 

Очень зрелищный мультфильм!!! 3D достойный!!!
 

Мне понравилось
 

Классный мульт,хорошее 3D.Спасибо!
 

Я не большая любительница мультиков, но этот зацепил. Необычный сюжет, очень милые смешные герои, получила удовольствие и от содержания и от 3D! Все красиво, все супер!
 

супер!
 

Скачивал для ребёнка, смотрел выборочно, картинка и 3D впечатляют. Спасибо за раздачу.
 

Глянуть можно, 3D хорошее.
 

Красивый мульт, но я думал, что это 2 часть..
 

После второй части скачиваю первую.Спасибо)))