Торренты   
 
 

 

Тачки 2 / Cars 2 (Джон Лассетер, Брэд Льюис) [2011, мультфильм, семейный, BDrip-AVC, Anamorph OverUnder]

Рейтинг 3D:
1 голосов
1.0
Рейтинг фильма:
1 голосов
10
 
Вы должны быть авторизированы,
чтобы ставить оценки


© Закрыто правообладателем
Год выпуска: 2011
Страна (Студии): США (Walt Disney Pictures, Pixar Animation Studios)
Жанр: Мультфильм, Комедия, Приключения, Семейный
Продолжительность: 01:47:00
Перевод: Профессиональный (полное дублирование)
Режиссер: Джон Лассетер, Брэд Льюис / John Lasseter, Brad LewisРоли дублировали / Озвучивали:Молния МакКуинн - Дмитрий Харатьян / Owen Wilson
Мэтр - Сергей Кузнецов / Larry "The Cable Guy"
Флинн МакМиссайл - Леонид Каневский / Michael Caine
Холли Шифтвелл - Жанна Фриске / Emily Mortimer
Сэр Майлс Экслрод - Леонид Ярмольник / Eddie Izzard
Франческо Бернулли - Сергей Дьячков / John Turturro
Брент Мустангбургер - Александр Балакирев / Brent Musburger
Грем - Сергей Куприянов / Joe Mantegna
Профессор Ц - Юрий Герцман / Thomas Kretschmann
Эйсер - Алексей Макрецкий / Peter Jacobson
Салли - Алика Смехова / Bonnie Hunt
Дэвид Хоббскап - Михаил Захаров / David Hobbs
Королева - Татьяна Гордеева / Vanessa Redgrave
Рэймон - Андрей Машков / Cheech Marin
Льюис Хэмилтон - Александр Лушин / Lewis Hamilton
Фернандо Алонсо - Fernando Alonso
Виталий Петров - Виталий Петров
Себастьян Шнелль - Sebastian Vettel
Жак Вильнёв - Jacques Villeneuve
........................................
Описание: Молния МакКуин и его друг Мэтр отправляются в международное путешествие — когда МакКуин получает шанс участвовать в соревнованиях для самых быстрых машин в мире, Мировом Гран-При. Этапы этих престижных гонок заведут друзей в Токио, на набережные Парижа, на побережье Италии, и на улицы туманного Лондона.

Знаете ли вы, что...

Из уважения к Полу Ньюману, который умер в 2008 году, персонаж Дока Хадсона не включен во второй фильм. Чтобы Док Хадсон был упомянут в фильме, в его честь решили назвать кубок Большого Поршня. Также сообщается, что Док умер.
Когда Мэтр, Фин МакМиссл и Холли Делюкс были во Франции, можно было заметить ресторан «Гюсто» (отсылка к другому мультфильму Pixar — «Рататуй»). Только сам Гюсто был в авто-прототипе (он очень похож на Мэтра).
Среди подручных Профессора Ц можно заметить группу автомобилей ЗАЗ 968, а точнее его экспортный вариант Jalta 968.
Джон Лассетер задумал историю для сиквела ещё в 2006 году, когда он был в Европе, продвигая первый мультфильм.

Доп. информация: Видеоряд - латиноамериканский.
В промежутке ~ с 46сек по 1мин 12сек картинка рассыпается квадратами! Так задумано создателями!
В начале диснеевской заставки на русской дорожке отсутствует ~1сек звука (такая была на 4-х проверенных мной релизах). После выкладывания этого релиза звук отредактировал, но сюда не вшивал. Исправленная дорога отдельно тут (ссылка обновлена 8.02.2012)
Инструкция по замене дорожки и пр. (MKVmergeGUI)Проверено на встроенном плейере ТВ Samsung UE-C7000
Формат 3d: Anamorph OverUnder
Качество: BDrip
Контейнер: MKV
Видео: AVC / 1920х1080p / 23,976 fps / 9 165 Kbps
Аудио#1: Русский / AC3 / 48 KHz / 5.1 ch / 448 Kbps
Аудио#2: Украинский / AC3 / 48 KHz / 2 ch / 192 Kbps (Дубляж - line)
Аудио#3: Английский / AC3 / 48 KHz / 5.1 ch / 640 Kbps

MediaInfo

General
UniqueID : 207795070564138272184689797455503847621 (0x9C53DFF773778186BCC7FCD1D22670C5)
Complete name : F:\Downloads\Cars2-3D.2011.halfOU.AC3-ash61.mkv
Format : Matroska
File size : 7.97 GiB
Duration : 1h 47mn
Overall bit rate : 10.7 Mbps
Movie name : Cars2 (ash61)
Encoded date : UTC 2011-10-22 11:35:55
Writing application : mkvmerge v3.4.0 ('Rapunzel') сборка от May 15 2010 09:38:20
Writing library : libebml v0.8.0 + libmatroska v0.9.0
Video
ID : 1
Format : AVC
Format/Info : Advanced Video Codec
Format profile : High@L4.1
Format settings, CABAC : Yes
Format settings, ReFrames : 4 frames
Codec ID : V_MPEG4/ISO/AVC
Duration : 1h 47mn
Bit rate : 9 165 Kbps
Width : 1 920 pixels
Height : 1 080 pixels
Display aspect ratio : 16:9
Frame rate : 23.976 fps
Color space : YUV
Chroma subsampling : 4:2:0
Bit depth : 8 bits
Scan type : Progressive
Bits/(Pixel*Frame) : 0.184
Stream size : 6.85 GiB (86%)
Title : Rip by Ash61
Writing library : x264 core 113 r1884 7313bb5
Encoding settings : cabac=1 / ref=4 / deblock=1:-3:-3 / analyse=0x3:0x113 / me=umh / subme=9 / psy=1 / psy_rd=1.00:0.15 / mixed_ref=1 / me_range=16 / chroma_me=1 / trellis=2 / 8x8dct=1 / cqm=0 / deadzone=21,11 / fast_pskip=1 / chroma_qp_offset=-3 / threads=3 / sliced_threads=0 / nr=0 / decimate=1 / interlaced=0 / constrained_intra=0 / bframes=6 / b_pyramid=2 / b_adapt=2 / b_bias=0 / direct=3 / weightb=1 / open_gop=0 / weightp=2 / keyint=250 / keyint_min=23 / scenecut=40 / intra_refresh=0 / rc_lookahead=60 / rc=crf / mbtree=1 / crf=16.0 / qcomp=0.70 / qpmin=0 / qpmax=69 / qpstep=4 / ip_ratio=1.40 / aq=1:1.00
Audio #1
ID : 2
Format : AC-3
Format/Info : Audio Coding 3
Mode extension : CM (complete main)
Codec ID : A_AC3
Duration : 1h 47mn
Bit rate mode : Constant
Bit rate : 448 Kbps
Channel(s) : 6 channels
Channel positions : Front: L C R, Side: L R, LFE
Sampling rate : 48.0 KHz
Bit depth : 16 bits
Compression mode : Lossy
Stream size : 343 MiB (4%)
Title : DD 5.1 @ 448 Kbps - Dub
Language : Russian
Audio #2
ID : 3
Format : AC-3
Format/Info : Audio Coding 3
Mode extension : CM (complete main)
Codec ID : A_AC3
Duration : 1h 47mn
Bit rate mode : Constant
Bit rate : 192 Kbps
Channel(s) : 2 channels
Channel positions : Front: L R
Sampling rate : 48.0 KHz
Bit depth : 16 bits
Compression mode : Lossy
Stream size : 147 MiB (2%)
Title : DD 2.0 @ 192 Kbps - Dub
Language : Ukrainian
Audio #3
ID : 4
Format : AC-3
Format/Info : Audio Coding 3
Mode extension : CM (complete main)
Codec ID : A_AC3
Duration : 1h 47mn
Bit rate mode : Constant
Bit rate : 640 Kbps
Channel(s) : 6 channels
Channel positions : Front: L C R, Side: L R, LFE
Sampling rate : 48.0 KHz
Bit depth : 16 bits
Compression mode : Lossy
Stream size : 490 MiB (6%)
Language : English
Menu
00:00:00.000 : :01
00:01:29.172 : :02
00:04:47.579 : :03
00:07:43.672 : :04
00:12:07.894 : :05
00:17:48.943 : :06
00:20:01.325 : :07
00:22:51.537 : :08
00:26:34.634 : :09
00:30:30.161 : :10
00:32:41.960 : :11
00:34:13.509 : :12
00:37:15.566 : :13
00:40:44.150 : :14
00:42:53.154 : :15
00:46:18.567 : :16
00:46:57.940 : :17
00:49:48.527 : :18
00:53:56.399 : :19
00:54:57.252 : :20
00:57:36.202 : :21
00:59:27.730 : :22
01:02:16.941 : :23
01:05:56.285 : :24
01:12:31.764 : :25
01:14:05.899 : :26
01:15:24.186 : :27
01:21:12.992 : :28
01:23:22.247 : :29
01:29:06.924 : :30
01:31:48.127 : :31
01:32:41.222 : :32
01:38:18.600 : :33

Скриншоты

Господа копипастеры, уважайте труд рипперов - пожалуйста,
не "забывайте" указывать авторство в своих релизах!
Благодарности релизеру (12)

Торрент:

Статус:

Размер:

Зарегистрирован   [ 2011-10-22 18:29 ]

© закрыто правообладателем

7.97 GB