Торренты   
 
 


Глаз ребенка / Child's Eye (Оксид Пан) [2010 г., BDRip 1080p, Anamorph OverUnder]

Рейтинг 3D:
2 голосов
6.5
Рейтинг фильма:
2 голосов
5.5
 
Вы должны быть авторизированы,
чтобы ставить оценки


Глаз ребенка / Child's Eye
Год выпуска: 2010
Страна: Гонконг, Digital Magic / Universe Entertainment / Universe Films Distribution Company
Жанр: Ужасы
Продолжительность: 01:37:02
Перевод: Профессиональный (полное дублирование)
Режиссер: Оксид Пан
В ролях: Шон Юе, Ка Танг Лам, Лоуренс Чоу, Джо Кук, Эленн Квонг, Рэйни Ян
Описание: Группа путешественников из Гонконга в составе 6 человек оказывается запертой в аэропорту Бангкока во время антиправительственного протеста в ноябре 2008-го года. Трое из группы исчезают таинственным и необъяснимым образом, а остальным предстоит столкнуться со сверхъестественными силами.
Доп. информация: Качество: BDRip (1080p)
Контейнер: MKV
Аудио: Русский (AC3, 6 ch, 448 Кбит/с), китайский (DTS, 6 ch, 768 Кбит/с)
Размер: 5.14 ГБ
Продолжительность: 01:37:02
Перевод: Дублированный (с ДВД лицензии R5)
Субтитры: Русские, английские
Формат 3d: Anamorph OverUnder
Видео: MPEG-4 AVC, 6059 Кбит/с, 1920x1080, 23.976 кадр/с

Скриншоты


me

Общее
Уникальный идентификатор : 197684942337088589925143800800983960570 (0x94B8BC28F836E4E5B89B35525784CBFA)
Формат : Matroska
Версия формата : Version 2
Размер файла : 5,14 Гбайт
Продолжительность : 1 ч. 37 м.
Общий поток : 7588 Кбит/сек
Название фильма : --SCHUMAHER--
Дата кодирования : UTC 2011-10-22 10:12:23
Программа кодирования : mkvmerge v5.0.1 ('Es ist Sommer') built on Oct 9 2011 11:55:43
Библиотека кодирования : libebml v1.2.2 + libmatroska v1.3.0
Видео
Идентификатор : 1
Формат : AVC
Формат/Информация : Advanced Video Codec
Профиль формата : High@L4.0
Параметр CABAC формата : Да
Параметр ReFrames формата : 4 кадра
Идентификатор кодека : V_MPEG4/ISO/AVC
Продолжительность : 1 ч. 37 м.
Битрейт : 6235 Кбит/сек
Ширина : 1920 пикселей
Высота : 1080 пикселей
Соотношение сторон : 16:9
Частота кадров : 23,976 кадра/сек
Цветовое пространство : YUV
Субдискретизация насыщенности : 4:2:0
Битовая глубина : 8 бит
Тип развёртки : Прогрессивная
Бит/(Пиксели*Кадры) : 0.125
Размер потока : 4,23 Гбайт (82%)
Библиотека кодирования : x264 core 112 r1834 a51816a
Настройки программы : cabac=1 / ref=4 / deblock=1:-3:-3 / analyse=0x3:0x133 / me=tesa / subme=10 / psy=1 / psy_rd=1.00:0.15 / mixed_ref=1 / me_range=16 / chroma_me=1 / trellis=2 / 8x8dct=1 / cqm=0 / deadzone=21,11 / fast_pskip=0 / chroma_qp_offset=-3 / threads=6 / sliced_threads=0 / nr=0 / decimate=0 / interlaced=0 / constrained_intra=0 / bframes=6 / b_pyramid=2 / b_adapt=2 / b_bias=0 / direct=3 / weightb=1 / open_gop=0 / weightp=2 / keyint=250 / keyint_min=23 / scenecut=40 / intra_refresh=0 / rc=crf / mbtree=0 / crf=19.5 / qcomp=0.70 / qpmin=0 / qpmax=51 / qpstep=4 / ip_ratio=1.40 / pb_ratio=1.30 / aq=1:0.80
Язык : Chinese
Аудио #1
Идентификатор : 2
Формат : AC-3
Формат/Информация : Audio Coding 3
Расширение режима : CM (complete main)
Идентификатор кодека : A_AC3
Продолжительность : 1 ч. 37 м.
Вид битрейта : Постоянный
Битрейт : 448 Кбит/сек
Каналы : 6 каналов
Расположение каналов : Front: L C R, Side: L R, LFE
Частота : 48,0 КГц
Битовая глубина : 16 бит
Метод сжатия : С потерями
Размер потока : 311 Мбайт (6%)
Язык : Russian
Аудио #2
Идентификатор : 3
Формат : DTS
Формат/Информация : Digital Theater Systems
Идентификатор кодека : A_DTS
Продолжительность : 1 ч. 37 м.
Вид битрейта : Постоянный
Битрейт : 755 Кбит/сек
Каналы : 6 каналов
Расположение каналов : Front: L C R, Side: L R, LFE
Частота : 48,0 КГц
Битовая глубина : 24 бит
Метод сжатия : С потерями
Размер потока : 524 Мбайт (10%)
Язык : Chinese
Текст #1
Идентификатор : 4
Формат : UTF-8
Идентификатор кодека : S_TEXT/UTF8
Идентификатор кодека/Информация : UTF-8 Plain Text
Язык : Russian
Текст #2
Идентификатор : 5
Формат : UTF-8
Идентификатор кодека : S_TEXT/UTF8
Идентификатор кодека/Информация : UTF-8 Plain Text
Язык : English
Меню
00:00:00.000 : :01
00:07:32.118 : :02
00:14:02.425 : :03
00:22:47.866 : :04
00:27:54.673 : :05
00:35:17.282 : :06
00:47:05.072 : :07
00:53:11.814 : :08
00:57:42.584 : :09
01:07:29.504 : :10
01:14:04.357 : :11
01:23:09.860 : :12
Ответить с цитатой
Благодарности релизеру (3)

Торрент:

Статус:

Размер:

Зарегистрирован   [ 2011-10-23 13:33 ]

проверено

5.14 GB