Торренты   
 
 

 

Первый мститель / Captain America: The First Avenger (Джо Джонстон / Joe Johnston) [2011г, 720p, BDrip, OverUnder]

делать ли кроп в рипах?

Да!   42%  42%  [ 11 ]
Нет.   38%  38%  [ 10 ]
Без разницы...   7%  7%  [ 2 ]
А шо это такое?   11%  11%  [ 3 ]

Всего проголосовало : 26

Рейтинг 3D:
49 голосов
7.0
Рейтинг фильма:
49 голосов
7.6
 
Вы должны быть авторизированы,
чтобы ставить оценки



Первый мститель 3D
Captain America: The First Avenger 3D
«When patriots become heroes» Год выпуска: 2011
Страна: США, Marvel
Жанр: фантастика, боевик, приключения
Продолжительность: 02:04:11
Перевод: Профессиональный (полное дублирование)
Русские субтитры: есть-Режиссер:
Джо Джонстон / Joe Johnston
В ролях:
Крис Эванс, Томми Ли Джонс, Хьюго Уивинг, Доминик Купер, Нил МакДонаф, Дерек Люк, Стенли Туччи, Хейли Этвелл, Себастиан Стэн, Ричард Армитэдж, Сэмюэл Л. Джексон, Тоби Джонс-Описание:
Стив Роджерс добровольно соглашается принять участие в эксперименте, который превратит его в супер солдата, известного как Первый мститель. Роджерс вступает в вооруженные силы США вместе с Баки Барнсом и Пегги Картер, чтобы бороться с враждебной организацией ГИДРА, которой управляет безжалостный Красный Череп.- Качество: BDrip
Контейнер: MKV
Формат 3D: OverUnder / Вертикальная стереопара
Видео кодек: x264
Аудио кодек: AC3
Видео: x264, 1280x1080, 23.976 кадр/сек, 9589 Кбит/сек
Аудио 1: русский; AC3, 6 каналов, 640 Кбит/сек, 48,0 КГц
Аудио 2: английский; AC3, 6 каналов, 384 Кбит/сек, 48,0 КГц (отдельно на Narod.Ru)
Cубтитры: русские (форсированные, полные), английские (.srt) (отдельно на Narod.Ru)

Знаете ли вы, что...

  • На пост режиссера «Капитана Америки» изначально был приглашен Джон Фавро, но он предпочел поработать над «Железным человеком». Снять фильм мог так же Ник Кассаветис. Луи Летерье был не против поработать над этой картиной, но студия Marvel отказала ему.
  • На главную роль пробовались: Джон Красински, Майк Фогель, Чейс Кроуфорд, Гаррет Хедлунд, Чаннинг Татум, Уилл Бретел Скотт Портер, Майкл Кэссиди и Патрик Флюгер. Рассматривались кандидатуры Леонардо ДиКаприо, Дженсена Эклза, Джон Сина и Мэттью МакКонахи.
  • Капитан Америка был создан писателем Джо Саймоном и художником Джеком Кирби и впервые появился в комиксе «Captain America Comics» #1 (март 1941).
  • Себастиан Стэн рассматривался на роль Капитана Америки, но в итоге получил роль Баки.
  • Крис Эванс отказывался от роли три раза, прежде чем принять участие. После этого он встретился с директором и продюсером, которые убедили его взять на себя роль.
  • Для подготовки к своей роли Пегги Картер, Хейли Этвелл тренировалась шесть дней в неделю.
  • Элис Ив и Кира Найтли рассматривались на роль Пегги Картер. Эмили Блант отказалась от этой роли.
  • Во всём мире фильм выходит с полным названием «Капитан Америка: Первый Мститель», и только в России, Южной Корее и Украине картина будет называться просто «Первый мститель».
  • Когда Timely Comics начала печатать «Капитана Америку», в адрес создателей комикса стали поступать письма и звонки с угрозами от американских фанатов Гитлера.

СКРИНШОТЫ

MI


Общее
Уникальный идентификатор : 228618876990977707205575940081625040404 (0xABFE64E40F36396BA3B4EE2A691F8614)
Полное имя : M:\3D-RuGroup\Captain.America.The.First.Avenger.3D.2011.BD3DRip.720p.OU.x264.AC3.Rus.mkv
Формат : Matroska
Версия формата : Version 2
Размер файла : 9,05 Гбайт
Продолжительность : 2 ч. 4 м.
Общий поток : 10,4 Мбит/сек
Название фильма : Captain.America.The.First.Avenger.3D.2011.BD3DRip.720p.OU.x264.AC3.Rus
Дата кодирования : UTC 2011-10-22 20:02:17
Программа кодирования : mkvmerge v3.4.0 ('Rapunzel') сборка от May 15 2010 09:38:20
Библиотека кодирования : libebml v0.8.0 + libmatroska v0.9.0
Видео
Идентификатор : 1
Формат : AVC
Формат/Информация : Advanced Video Codec
Профиль формата : High@L4.0
Параметр CABAC формата : Да
Параметр ReFrames формата : 4 кадра
Идентификатор кодека : V_MPEG4/ISO/AVC
Продолжительность : 2 ч. 4 м.
Битрейт : 9589 Кбит/сек
Ширина : 1280 пикселей
Высота : 1080 пикселей
Соотношение сторон : 1,185
Частота кадров : 23,976 кадра/сек
Цветовое пространство : YUV
Субдискретизация насыщенности : 4:2:0
Битовая глубина : 8 бит
Тип развёртки : Прогрессивная
Бит/(Пиксели*Кадры) : 0.289
Размер потока : 8,32 Гбайт (92%)
Заголовок : Release by 3D-RuGroup
Библиотека кодирования : x264 core 116 r2074 2641b9e
Настройки программы : cabac=1 / ref=4 / deblock=1:-3:-3 / analyse=0x3:0x133 / me=umh / subme=9 / psy=1 / psy_rd=1.05:0.15 / mixed_ref=1 / me_range=32 / chroma_me=1 / trellis=2 / 8x8dct=1 / cqm=0 / deadzone=21,11 / fast_pskip=0 / chroma_qp_offset=-3 / threads=3 / sliced_threads=0 / nr=0 / decimate=1 / interlaced=0 / bluray_compat=0 / constrained_intra=0 / bframes=6 / b_pyramid=2 / b_adapt=2 / b_bias=0 / direct=3 / weightb=1 / open_gop=0 / weightp=2 / keyint=250 / keyint_min=23 / scenecut=40 / intra_refresh=0 / rc_lookahead=40 / rc=crf / mbtree=1 / crf=18.0 / qcomp=0.70 / qpmin=1 / qpmax=51 / qpstep=4 / ip_ratio=1.40 / aq=1:0.70
Язык : English
Аудио
Идентификатор : 2
Формат : AC-3
Формат/Информация : Audio Coding 3
Расширение режима : CM (complete main)
Идентификатор кодека : A_AC3
Продолжительность : 2 ч. 4 м.
Вид битрейта : Постоянный
Битрейт : 640 Кбит/сек
Каналы : 6 каналов
Расположение каналов : Front: L C R, Side: L R, LFE
Частота : 48,0 КГц
Битовая глубина : 16 бит
Метод сжатия : С потерями
Размер потока : 569 Мбайт (6%)
Заголовок : AC3 5.1 640 Kbps [DUB - BD EUR]
Язык : Russian
Меню
00:00:00.000 : :CHAPTER01
00:08:12.158 : :CHAPTER02
00:14:56.813 : :CHAPTER03
00:24:21.543 : :CHAPTER04
00:30:39.129 : :CHAPTER05
00:38:39.859 : :CHAPTER06
00:45:52.166 : :CHAPTER07
00:51:58.157 : :CHAPTER08
00:57:55.639 : :CHAPTER09
01:03:59.294 : :CHAPTER10
01:12:22.588 : :CHAPTER11
01:19:10.663 : :CHAPTER12
01:28:27.052 : :CHAPTER13
01:33:53.002 : :CHAPTER14
01:42:20.343 : :CHAPTER15
01:50:45.055 : :CHAPTER16
01:53:46.319 : :CHAPTER17
Остальные раздачи этого фильма (6)
Благодарности релизеру (7)

Торрент:

Статус:

Размер:

Зарегистрирован   [ 2011-10-23 14:09 ]

проверено

9.05 GB