Торренты   
 
 

 

Капитан Америка: Первый Мститель / Captain America: The First Avenger (BDrip, 720p, 60fps (просчет кадров), SBS, letterbox) [SideBySide]

Рейтинг 3D:
49 голосов
7.0
Рейтинг фильма:
49 голосов
7.6
 
Вы должны быть авторизированы,
чтобы ставить оценки


Первый мститель 3D
Captain America: The First Avenger 3D
«When patriots become heroes» Год выпуска: 2011
Страна: США, Marvel
Жанр: фантастика, боевик, приключения
Продолжительность: 02:04:11
Перевод: Профессиональный (полное дублирование)
Русские субтитры: есть-Режиссер:
Джо Джонстон / Joe Johnston
В ролях:
Крис Эванс, Томми Ли Джонс, Хьюго Уивинг, Доминик Купер, Нил МакДонаф, Дерек Люк, Стенли Туччи, Хейли Этвелл, Себастиан Стэн, Ричард Армитэдж, Сэмюэл Л. Джексон, Тоби Джонс-Описание:
Стив Роджерс добровольно соглашается принять участие в эксперименте, который превратит его в супер солдата, известного как Первый мститель. Роджерс вступает в вооруженные силы США вместе с Баки Барнсом и Пегги Картер, чтобы бороться с враждебной организацией ГИДРА, которой управляет безжалостный Красный Череп.
Дополнительно:
Внимание, это конвертация в 60 FPS

MediaInfo

Общее
Уникальный идентификатор : 208972992546247248435850574455324734125 (0x9D36BC01118415DF9BEEB1C82992F2AD)
Полное имя : D:\3D\Rips 60 fps\Captain.America.The.First.Avenger.3D.2011.BD3DRip.720p.SBS.60FPS.x264.AC3.Rus..mkv
Формат : Matroska
Версия формата : Version 2
Размер файла : 12,6 Гбайт
Продолжительность : 2 ч. 4 м.
Общий поток : 14,5 Мбит/сек
Дата кодирования : UTC 2011-10-24 01:13:49
Программа кодирования : mkvmerge v4.6.0 ('Still Crazy After All These Years') сборка от Mar 10 2011 02:50:32
Библиотека кодирования : libebml v1.2.0 + libmatroska v1.1.0
Видео
Идентификатор : 1
Формат : AVC
Формат/Информация : Advanced Video Codec
Профиль формата : High@L4.2
Параметр CABAC формата : Да
Параметр ReFrames формата : 4 кадра
Идентификатор кодека : V_MPEG4/ISO/AVC
Продолжительность : 2 ч. 4 м.
Битрейт : 13,6 Мбит/сек
Ширина : 2560 пикселей
Высота : 720 пикселей
Соотношение сторон : 16:9
Соотношение сторон в оригинале : 3,556
Частота кадров : 59,940 кадров/сек
Цветовое пространство : YUV
Субдискретизация насыщенности : 4:2:0
Битовая глубина : 8 бит
Тип развёртки : Прогрессивная
Бит/(Пиксели*Кадры) : 0.123
Размер потока : 11,8 Гбайт (94%)
Библиотека кодирования : x264 core 116 r2057 0ba8a9c
Настройки программы : cabac=1 / ref=3 / deblock=1:-1:-1 / analyse=0x3:0x113 / me=hex / subme=7 / psy=1 / psy_rd=1.00:0.15 / mixed_ref=1 / me_range=16 / chroma_me=1 / trellis=1 / 8x8dct=1 / cqm=0 / deadzone=21,11 / fast_pskip=1 / chroma_qp_offset=-3 / threads=12 / sliced_threads=0 / nr=0 / decimate=1 / interlaced=0 / bluray_compat=0 / constrained_intra=0 / bframes=3 / b_pyramid=2 / b_adapt=1 / b_bias=0 / direct=1 / weightb=1 / open_gop=0 / weightp=2 / keyint=250 / keyint_min=25 / scenecut=40 / intra_refresh=0 / rc_lookahead=40 / rc=crf / mbtree=1 / crf=15.0 / qcomp=0.60 / qpmin=10 / qpmax=51 / qpstep=4 / ip_ratio=1.40 / aq=1:1.00
Аудио
Идентификатор : 2
Формат : AC-3
Формат/Информация : Audio Coding 3
Расширение режима : CM (complete main)
Идентификатор кодека : A_AC3
Продолжительность : 2 ч. 4 м.
Вид битрейта : Постоянный
Битрейт : 640 Кбит/сек
Каналы : 6 каналов
Расположение каналов : Front: L C R, Side: L R, LFE
Частота : 48,0 КГц
Битовая глубина : 16 бит
Метод сжатия : С потерями
Размер потока : 569 Мбайт (4%)

Скриншоты




Формат 3d: SideBySide
Порядок ракурсов: Параллельная пара

Террент перезалит 30.10.2011 - добавлены семплы для сравнения, просьба раннее скачавших - перекачать!!!
Остальные раздачи этого фильма (6)
Благодарности релизеру (1)

Торрент:

Статус:

Размер:

Зарегистрирован   [ 2011-10-30 23:20 ]

проверено

12.92 GB