Торренты   
 
 

 

Первый мститель / Captain America: The First Avenger (Джо Джонстон) [2011 г., BDRip 1080p, Full OverUnder]

Рейтинг 3D:
49 голосов
7.0
Рейтинг фильма:
49 голосов
7.6
 
Вы должны быть авторизированы,
чтобы ставить оценки


Первый мститель / Captain America: The First Avenger
Год выпуска: 2011
Страна: США
Жанр: Фантастика, Боевик, Приключения
Продолжительность: 02:04:10
Перевод: Профессиональный (полное дублирование)
Режиссер: Джо Джонстон
В ролях: Крис Эванс, Томми Ли Джонс, Хьюго Уивинг, Доминик Купер, Нил МакДонаф, Дерек Люк, Стенли Туччи, Хейли Этвелл, Себастиан Стэн, Ричард Армитэдж, Сэмюэл Л. Джексон, Тоби Джонс
Описание: Стив Роджерс добровольно соглашается принять участие в эксперименте, который превратит его в супер солдата, известного как Первый мститель. Роджерс вступает в вооруженные силы США вместе с Баки Барнсом и Пегги Картер, чтобы бороться с враждебной организацией ГИДРА, которой управляет безжалостный Красный Череп.

Формат 3d: OverUnder
Видео: AVC, h264, 1920х1616 , 23,976 кадр/сек, 26,2 Мбит/сек
Аудио: Rus, AC-3, 6 каналов, 640 Кбит/сек, 48,0 КГц
Аудио: Eng, AC-3, 6 каналов, 640 Кбит/сек, 48,0 КГц

Скриншоты



me

Общее
Уникальный идентификатор : 242839632289246694522050846072886039768 (0xB6B136426B731439B0990B47564094D8)
Полное имя : D:\_Stereo\Captain America 1080p.mkv
Формат : Matroska
Размер файла : 24,3 Гбайт
Продолжительность : 2 ч. 4 м.
Общий поток : 28,0 Мбит/сек
Дата кодирования : UTC 2011-10-25 14:46:41
Программа кодирования : mkvmerge v3.4.0 ('Rapunzel') сборка от May 15 2010 09:38:20
Библиотека кодирования : libebml v0.8.0 + libmatroska v0.9.0
Видео
Идентификатор : 1
Формат : AVC
Формат/Информация : Advanced Video Codec
Профиль формата : High@L5.0
Параметр CABAC формата : Да
Параметр ReFrames формата : 4 кадры
Идентификатор кодека : V_MPEG4/ISO/AVC
Продолжительность : 2 ч. 4 м.
Битрейт : 26,2 Мбит/сек
Ширина : 1920 пикс.
Высота : 1616 пикс.
Соотношение сторон : 1,188
Частота кадров : 23,976 кадр/сек
Цветовое пространство : YUV
Подвыборка цветности : 4:2:0
Битовая глубина : 8 бит
Тип развёртки : Прогрессивная
Бит/(Пиксели*Кадры) : 0.352
Размер потока : 22,7 Гбайт (93%)
Библиотека кодирования : x264 core 119 r2106 07efeb4
Настройки программы : cabac=1 / ref=4 / deblock=1:-2:-3 / analyse=0x3:0x113 / me=umh / subme=8 / psy=1 / psy_rd=1.00:0.00 / mixed_ref=1 / me_range=16 / chroma_me=1 / trellis=2 / 8x8dct=1 / cqm=0 / deadzone=21,11 / fast_pskip=1 / chroma_qp_offset=-3 / threads=9 / sliced_threads=0 / nr=0 / decimate=1 / interlaced=0 / bluray_compat=0 / constrained_intra=0 / bframes=6 / b_pyramid=0 / b_adapt=2 / b_bias=0 / direct=3 / weightb=1 / open_gop=0 / weightp=2 / keyint=250 / keyint_min=23 / scenecut=40 / intra_refresh=0 / rc_lookahead=40 / rc=crf / mbtree=1 / crf=18.0 / qcomp=0.60 / qpmin=0 / qpmax=69 / qpstep=4 / ip_ratio=1.40 / aq=1:1.00
Аудио #1
Идентификатор : 2
Формат : AC-3
Формат/Информация : Audio Coding 3
Расширение режима : CM (complete main)
Идентификатор кодека : A_AC3
Продолжительность : 2 ч. 4 м.
Вид битрейта : Постоянный
Битрейт : 640 Кбит/сек
Канал(ы) : 6 канала(ов)
Расположение каналов : Front: L C R, Side: L R, LFE
Частота : 48,0 КГц
Битовая глубина : 16 бит
Метод сжатия : С потерями
Размер потока : 569 Мбайт (2%)
Язык : Russian
Аудио #2
Идентификатор : 3
Формат : AC-3
Формат/Информация : Audio Coding 3
Расширение режима : CM (complete main)
Идентификатор кодека : A_AC3
Продолжительность : 2 ч. 4 м.
Вид битрейта : Постоянный
Битрейт : 640 Кбит/сек
Канал(ы) : 6 канала(ов)
Расположение каналов : Front: L C R, Side: L R, LFE
Частота : 48,0 КГц
Битовая глубина : 16 бит
Метод сжатия : С потерями
Размер потока : 569 Мбайт (2%)
Язык : English
Скриншоты сравнения
Остальные раздачи этого фильма (6)
Благодарности релизеру (6)

Торрент:

Статус:

Размер:

Зарегистрирован   [ 2011-10-25 19:42 ]

проверено

24.28 GB