Торренты   
 
 


Тачки 2 / Cars 2 (Джон Лассетер, Брэд Льюис) [2011, мультфильм, семейный, BDrip, 720p OverUnder]

Рейтинг 3D:
2 голосов
6.5
Рейтинг фильма:
2 голосов
8.0
 
Вы должны быть авторизированы,
чтобы ставить оценки


© Закрыто правообладателем
Год выпуска: 2011
Страна: США
Студия: Walt Disney Pictures, Pixar Animation Studios
Жанр: Мультфильм, Комедия, Приключения, Семейный
Продолжительность: 01:46:59
Перевод: Профессиональный (полное дублирование)-Режиссер:
Джон Лассетер, Брэд Льюис / John Lasseter, Brad Lewis
Роли дублировали / Озвучивали:
Молния МакКуинн - Дмитрий Харатьян / Owen Wilson, Мэтр - Сергей Кузнецов / Larry "The Cable Guy", Флинн МакМиссайл - Леонид Каневский / Michael Caine, Холли Шифтвелл - Жанна Фриске / Emily Mortimer, Сэр Майлс Экслрод - Леонид Ярмольник / Eddie Izzard, Франческо Бернулли - Сергей Дьячков / John Turturro, Брент Мустангбургер - Александр Балакирев / Brent Musburger, Грем - Сергей Куприянов / Joe Mantegna, Профессор Ц - Юрий Герцман / Thomas Kretschmann, Эйсер - Алексей Макрецкий / Peter Jacobson, Салли - Алика Смехова / Bonnie Hunt, Дэвид Хоббскап - Михаил Захаров / David Hobbs, Королева - Татьяна Гордеева / Vanessa Redgrave, Рэймон - Андрей Машков / Cheech Marin, Льюис Хэмилтон - Александр Лушин / Lewis Hamilton, Фернандо Алонсо - Fernando Alonso, Виталий Петров - Виталий Петров, Себастьян Шнелль - Sebastian Vettel, Жак Вильнёв - Jacques Villeneuve-Описание:
Молния МакКуин и его друг Мэтр отправляются в международное путешествие — когда МакКуин получает шанс участвовать в соревнованиях для самых быстрых машин в мире, Мировом Гран-При. Этапы этих престижных гонок заведут друзей в Токио, на набережные Парижа, на побережье Италии, и на улицы туманного Лондона.- Качество: BDrip
Контейнер: MKV
Формат 3D: OverUnder / Вертикальная стереопара
Видео кодек: x264
Аудио кодек: AC3
Видео: x264, 1280x1136, 23.976 кадр/сек, 6195 Кбит/сек
Аудио 1: русский; AC3, 6 каналов, 448 Кбит/сек, 48,0 КГц
Аудио 2: английский; AC3, 6 каналов, 448 Кбит/сек, 48,0 КГц (отдельно на Narod.Ru)
Аудио 3: украинский; AC3, 2 каналов, 192 Кбит/сек, 48,0 КГц (отдельно на Narod.Ru)

Знаете ли вы, что...

  • Из уважения к Полу Ньюману, который умер в 2008 году, персонаж Дока Хадсона не включен во второй фильм. Чтобы Док Хадсон был упомянут в фильме, в его честь решили назвать кубок Большого Поршня. Также сообщается, что Док умер.
  • Когда Мэтр, Фин МакМиссл и Холли Делюкс были во Франции, можно было заметить ресторан «Гюсто» (отсылка к другому мультфильму Pixar — «Рататуй»). Только сам Гюсто был в авто-прототипе (он очень похож на Мэтра).
  • Среди подручных Профессора Ц можно заметить группу автомобилей ЗАЗ 968, а точнее его экспортный вариант Jalta 968.
  • Джон Лассетер задумал историю для сиквела ещё в 2006 году, когда он был в Европе, продвигая первый мультфильм.

СКРИНШОТЫ

MI


Общее
Уникальный идентификатор : 193619418124614365302476154222511603287 (0x91A9BE5733CF4CB0A3B412F703333E57)
Полное имя : M:\3D-RuGroup\Cars2.3D.2011.BD3DRip.720p.OU.x264.AC3.3D-RuGroup.mkv
Формат : Matroska
Версия формата : Version 2
Размер файла : 5,07 Гбайт
Продолжительность : 1 ч. 47 м.
Общий поток : 6778 Кбит/сек
Название фильма : Cars2.3D.2011.BD3DRip.720p.OU.x264.AC3.3D-RuGroup
Дата кодирования : UTC 2011-10-25 17:26:58
Программа кодирования : mkvmerge v3.4.0 ('Rapunzel') сборка от May 15 2010 09:38:20
Библиотека кодирования : libebml v0.8.0 + libmatroska v0.9.0
Видео
Идентификатор : 1
Формат : AVC
Формат/Информация : Advanced Video Codec
Профиль формата : High@L4.0
Параметр CABAC формата : Да
Параметр ReFrames формата : 5 кадров
Идентификатор кодека : V_MPEG4/ISO/AVC
Продолжительность : 1 ч. 47 м.
Битрейт : 6195 Кбит/сек
Ширина : 1280 пикселей
Высота : 1136 пикселей
Соотношение сторон : 1,127
Частота кадров : 23,976 кадра/сек
Цветовое пространство : YUV
Субдискретизация насыщенности : 4:2:0
Битовая глубина : 8 бит
Тип развёртки : Прогрессивная
Бит/(Пиксели*Кадры) : 0.178
Размер потока : 4,63 Гбайт (91%)
Заголовок : Release by 3D-RuGroup
Библиотека кодирования : x264 core 116 r2074 2641b9e
Настройки программы : cabac=1 / ref=5 / deblock=1:-3:-3 / analyse=0x3:0x133 / me=umh / subme=9 / psy=1 / psy_rd=1.00:0.15 / mixed_ref=1 / me_range=32 / chroma_me=1 / trellis=2 / 8x8dct=1 / cqm=0 / deadzone=21,11 / fast_pskip=0 / chroma_qp_offset=-3 / threads=3 / sliced_threads=0 / nr=0 / decimate=1 / interlaced=0 / bluray_compat=0 / constrained_intra=0 / bframes=6 / b_pyramid=2 / b_adapt=2 / b_bias=0 / direct=3 / weightb=1 / open_gop=0 / weightp=2 / keyint=250 / keyint_min=23 / scenecut=40 / intra_refresh=0 / rc_lookahead=60 / rc=crf / mbtree=1 / crf=18.0 / qcomp=0.70 / qpmin=0 / qpmax=69 / qpstep=4 / ip_ratio=1.40 / aq=1:0.70
Язык : English
Аудио
Идентификатор : 2
Формат : AC-3
Формат/Информация : Audio Coding 3
Расширение режима : CM (complete main)
Идентификатор кодека : A_AC3
Продолжительность : 1 ч. 47 м.
Вид битрейта : Постоянный
Битрейт : 448 Кбит/сек
Каналы : 6 каналов
Расположение каналов : Front: L C R, Side: L R, LFE
Частота : 48,0 КГц
Битовая глубина : 16 бит
Метод сжатия : С потерями
Размер потока : 343 Мбайт (7%)
Заголовок : Russian DUB (5.1 / 48 kHz / 448 kbps)
Язык : Russian
Меню
00:00:00.000 : :CHAPTER01
00:01:29.172 : :CHAPTER02
00:04:47.579 : :CHAPTER03
00:07:43.672 : :CHAPTER04
00:12:07.894 : :CHAPTER05
00:17:48.943 : :CHAPTER06
00:20:01.325 : :CHAPTER07
00:22:51.537 : :CHAPTER08
00:26:34.635 : :CHAPTER09
00:30:30.162 : :CHAPTER10
00:32:41.960 : :CHAPTER11
00:34:13.510 : :CHAPTER02
00:37:15.567 : :CHAPTER13
00:40:44.150 : :CHAPTER14
00:42:53.154 : :CHAPTER15
00:46:18.567 : :CHAPTER16
00:46:57.940 : :CHAPTER17
00:49:48.527 : :CHAPTER18
00:53:56.400 : :CHAPTER19
00:54:57.252 : :CHAPTER20
00:57:36.203 : :CHAPTER21
00:59:27.731 : :CHAPTER22
01:02:16.942 : :CHAPTER23
01:05:56.286 : :CHAPTER24
01:12:31.764 : :CHAPTER25
01:14:05.900 : :CHAPTER26
01:15:24.186 : :CHAPTER27
01:21:12.993 : :CHAPTER28
01:23:22.247 : :CHAPTER29
01:29:06.925 : :CHAPTER30
01:31:48.128 : :CHAPTER31
01:32:41.222 : :CHAPTER32
01:38:18.601 : :CHAPTER33
Благодарности релизеру (0)

Торрент:

Статус:

Размер:

Зарегистрирован   [ 2011-10-26 19:27 ]

© закрыто правообладателем

5.07 GB