Торренты   
 
 

 

Пункт назначения 4 в 3D / The Final Destination 3D (Дэвид Р. Эллис / David R. Ellis) [2009,BDrip,BDrip, 1080p, Anaglyph, red'cyan (Dubois)]

Рейтинг 3D:
81 голосов
8.6
Рейтинг фильма:
76 голосов
8.2
 
Вы должны быть авторизированы,
чтобы ставить оценки


Пункт назначения 4 в 3D / The Final Destination 3D
Год выпуска: 2009
Страна: США
Студия: New Line Cinema
Жанр: Триллер, Ужасы
Продолжительность: 01:21:46
Перевод: Профессиональный (дублированный)
Русские субтитры: нет
Режиссер на русском: Дэвид Р. Эллис
Режиссер на английском: David R. Ellis
В ролях: Бобби Кампо / Bobby Campo, Шантель Ван Сантен / Shantel Van Santen, Ник Зано / Nick Zano, Хейли Уэбб / Haley Webb, Майкелти Уильямсон / Mykelti Williamson, Криста Аллен / Krista Allen, Эндрю Фисцелла / Andrew Fiscella, Джастин Велборн / Justin Welborn, Стефани Онор / Stephanie Honore, Лара Грис / Lara Grice . . .
Описание: История на этот раз вращается вокруг Ника О`Бэннона, к молодому человеку приходит видение — на автогонках произойдет ужасная трагедия, жертвами которой станут его друзья и он сам. Как и прежде группе счастливчиков, благодаря Нику, удается выжить, но смерть вовсе не спешит вычеркивать их из своего списка.
Качество: BDrip
Контейнер: MKV
Формат 3D: Анаглиф red-cyan (Дюбуа)
Порядок ракурсов: левый ракурс первый
Видео кодек: h.264
Аудио кодек: AC3
Видео: MPEG4 Video (H264) 1920x1080 23.98fps 13.2 Mbps
Аудио: Русский / Дублированный Dolby AC3 48000Hz 6ch 448 Kbps

MediaInfo

General
Format : Matroska
File size : 7.93 GiB
Duration : 1h 21mn
Overall bit rate : 13.9 Mbps
Movie name : Final Destination 4 - 3D (rip by Ash61)
Encoded date : UTC 2011-10-25 16:42:34
Writing application : mkvmerge v4.4.0 ('Die Wiederkehr') сборка от Oct 31 2010 21:52:48
Writing library : libebml v1.0.0 + libmatroska v1.0.0
Video
ID : 1
Format : AVC
Format/Info : Advanced Video Codec
Format profile : High@L4.0
Format settings, CABAC : Yes
Format settings, ReFrames : 4 frames
Codec ID : V_MPEG4/ISO/AVC
Duration : 1h 21mn
Bit rate : 13.2 Mbps
Width : 1 920 pixels
Height : 1 080 pixels
Display aspect ratio : 16:9
Frame rate : 23.976 fps
Color space : YUV
Chroma subsampling : 4:2:0
Bit depth : 8 bits
Scan type : Progressive
Bits/(Pixel*Frame) : 0.265
Stream size : 7.52 GiB (95%)
Title : Anaglyph Dubois by Boss-Master
Writing library : x264 core 115 r1995 c1e60b9
Encoding settings : cabac=1 / ref=4 / deblock=1:-2:-2 / analyse=0x3:0x113 / me=umh / subme=9 / psy=1 / psy_rd=1.00:0.15 / mixed_ref=1 / me_range=16 / chroma_me=1 / trellis=2 / 8x8dct=1 / cqm=0 / deadzone=21,11 / fast_pskip=1 / chroma_qp_offset=-3 / threads=6 / sliced_threads=0 / nr=0 / decimate=1 / interlaced=0 / bluray_compat=0 / constrained_intra=0 / bframes=6 / b_pyramid=0 / b_adapt=2 / b_bias=0 / direct=3 / weightb=1 / open_gop=0 / weightp=2 / keyint=250 / keyint_min=23 / scenecut=40 / intra_refresh=0 / rc_lookahead=40 / rc=crf / mbtree=1 / crf=18.0 / qcomp=0.60 / qpmin=10 / qpmax=69 / qpstep=4 / ip_ratio=1.40 / aq=1:1.00
Audio
ID : 2
Format : AC-3
Format/Info : Audio Coding 3
Mode extension : CM (complete main)
Codec ID : A_AC3
Duration : 1h 21mn
Bit rate mode : Constant
Bit rate : 448 Kbps
Channel(s) : 6 channels
Channel positions : Front: L C R, Side: L R, LFE
Sampling rate : 48.0 KHz
Bit depth : 16 bits
Compression mode : Lossy
Stream size : 262 MiB (3%)
Language : Russian
Menu
00:00:00.000 : :01
00:04:00.282 : :02
00:06:42.152 : :03
00:11:29.230 : :04
00:12:57.652 : :05
00:17:40.309 : :06
00:21:32.791 : :07
00:23:36.081 : :08
00:26:50.651 : :09
00:29:12.376 : :10
00:32:49.134 : :11
00:36:03.328 : :12
00:39:14.978 : :13
00:43:37.198 : :14
00:47:01.027 : :15
00:50:05.044 : :16
00:55:22.611 : :17
00:59:46.249 : :18
01:01:22.846 : :19
01:05:43.940 : :20
01:08:18.094 : :21
01:09:55.942 : :22
01:13:33.701 : :23
01:16:35.049 : :24

Скриншоты

Остальные раздачи этого фильма (7)
Благодарности релизеру (1)

Торрент:

Статус:

Размер:

Зарегистрирован   [ 2011-10-27 18:53 ]

проверено

7.93 GB

 
 Мнение о фильме (14)





Смотрю уже скорее по привычке, как сериал
 

спасибо 3D не плохое
 

Наконец-то посмотрел.ОТЛИЧНОООО! И 3д и сам фильм.
 

Раздайте пожалуйста!!!
 

3d отличное, сам фильм несколько скучноватый...
 

Один из лучших фильмов, что я видел, в самый раз для 3-д
 
Алексей "51" Профиль 03-Окт-2013 01:37

Фильм шикарный!!
 

Фильм супер лучшее 3д не видел
 

Фильм и 3D отличное.
 

хрень
 

3д супер фильм на любителя
 

норм
 

Раздайте плиз
 

Друзья дайте скорость, очень хочу посмотреть этот фильм