Торренты   
 
 

 

Майкл Флэтли: Властелин танца / Michael Flatley Returns as Lord of the Dance in 3D [2011г, 1080p, BDrip, Folk, Celtic, Irish Dance, Anamorph OverUnder]

Рейтинг 3D:
6 голосов
8.2
Рейтинг фильма:
6 голосов
8.7
 
Вы должны быть авторизированы,
чтобы ставить оценки


Властелин танца
Lord of the Dance in 3D

Год выпуска: 2011
Страна: Великобритания
Жанр: Ирландские танцы, Селтик, Фолк
Продолжительность: 01:35:05
Перевод: Отсутствует (необязателен)
Язык: Английский
Режиссер: Маркус Винер \ Marcus Viner
В ролях: Michael Flatley, Bernadette Flynn...
Описание: Музыкальный фильм "Lord of the Dance" был снят двадцатью 3D-камерами во время пяти живых представлений танцевального шоу со всех возможных ракурсов. "Мы могли бы снять фильм в павильоне, но нам очень важно было передать атмосферу живого выступления" - говорит Флэтли.
Доп. информация: Впервые посмотрел это шоу несколько лет назад, в DVDrip 2д, в первой постановке конца 90-х. И мне, и всем близким очень понравилось.
Со своей премьеры это шоу постоянно гастролирует с аншлагом по всему миру (в т.ч. и в России) что и показано в первых кадрах фильма. Вступление - рассказ Майкла Флэтли о шоу (несколько минут), а далее - само шоу!
Данный релиз - это шоу в современной постановке (ash61).Проверено на встроенном плейере ТВ Samsung UE-C7000
Формат 3d: Anamorph OverUnder
Качество: BDrip
Контейнер: MKV
Видео: AVC / 1920х1080p / 23,976 fps / 13.3 Mbps
Аудио: AC3 / 48 KHz / 5.1 ch / 640 Kbps

MediaInfo

General
UniqueID : 176950473762065700844673227777896052758 (0x851F6BEE9465F537AF59CFFE269B7816)
Complete name : F:\Downloads\LordOfTheDance-3D.2011.halfOU.AC3-ash61.mkv
Format : Matroska
File size : 9.47 GiB
Duration : 1h 35mn
Overall bit rate : 14.3 Mbps
Movie name : Michal Flatley Returns As Lord Of The Dance (ash61)
Encoded date : UTC 2011-10-27 13:29:13
Writing application : mkvmerge v3.4.0 ('Rapunzel') сборка от May 15 2010 09:38:20
Writing library : libebml v0.8.0 + libmatroska v0.9.0
Video
ID : 1
Format : AVC
Format/Info : Advanced Video Codec
Format profile : High@L4.1
Format settings, CABAC : Yes
Format settings, ReFrames : 4 frames
Codec ID : V_MPEG4/ISO/AVC
Duration : 1h 35mn
Bit rate : 13.3 Mbps
Width : 1 920 pixels
Height : 1 080 pixels
Display aspect ratio : 16:9
Frame rate : 23.976 fps
Color space : YUV
Chroma subsampling : 4:2:0
Bit depth : 8 bits
Scan type : Progressive
Bits/(Pixel*Frame) : 0.268
Stream size : 8.86 GiB (94%)
Title : Rip by Ash61
Writing library : x264 core 113 r1884 7313bb5
Encoding settings : cabac=1 / ref=4 / deblock=1:-3:-3 / analyse=0x3:0x113 / me=umh / subme=9 / psy=1 / psy_rd=1.00:0.15 / mixed_ref=1 / me_range=16 / chroma_me=1 / trellis=2 / 8x8dct=1 / cqm=0 / deadzone=21,11 / fast_pskip=1 / chroma_qp_offset=-3 / threads=3 / sliced_threads=0 / nr=0 / decimate=1 / interlaced=0 / constrained_intra=0 / bframes=6 / b_pyramid=2 / b_adapt=2 / b_bias=0 / direct=3 / weightb=1 / open_gop=0 / weightp=2 / keyint=250 / keyint_min=23 / scenecut=40 / intra_refresh=0 / rc_lookahead=60 / rc=crf / mbtree=1 / crf=18.0 / qcomp=0.70 / qpmin=0 / qpmax=69 / qpstep=4 / ip_ratio=1.40 / aq=1:1.00
Audio
ID : 2
Format : AC-3
Format/Info : Audio Coding 3
Mode extension : CM (complete main)
Codec ID : A_AC3
Duration : 1h 35mn
Bit rate mode : Constant
Bit rate : 640 Kbps
Channel(s) : 6 channels
Channel positions : Front: L C R, Side: L R, LFE
Sampling rate : 48.0 KHz
Bit depth : 16 bits
Compression mode : Lossy
Stream size : 435 MiB (4%)
Language : English
Menu
00:00:00.000 : :01
00:08:08.530 : :02
00:16:37.705 : :03
00:22:19.046 : :04
00:25:43.125 : :05
00:27:56.216 : :06
00:31:57.290 : :07
00:39:09.305 : :08
00:41:41.457 : :09
00:46:50.599 : :10
00:51:04.895 : :11
01:00:34.047 : :12
01:03:53.455 : :13
01:06:10.592 : :14
01:17:04.411 : :15
01:20:50.804 : :16
01:24:26.311 : :17
01:31:27.565 : :18

Бонус-Фото

Господа копипастеры, уважайте труд рипперов - пожалуйста,
не "забывайте" указывать авторство в своих релизах!
Благодарности релизеру (10)

Торрент:

Статус:

Размер:

Зарегистрирован   [ 2011-10-27 21:41 ]

проверено

9.47 GB