Торренты   
 
 

 

История игрушек: Большой побег / Toy Story 3 [2010г, 1080p, BDrip, Anamorph OverUnder]

Рейтинг 3D:
6 голосов
7.2
Рейтинг фильма:
6 голосов
8.8
 
Вы должны быть авторизированы,
чтобы ставить оценки


История игрушек: Большой побег
Toy Story 3

Год выпуска: 2010
Страна: США (Walt Disney Pictures, Pixar Animation Studios)
Жанр: Мультфильм, Приключения, Семейный
Продолжительность: 01:42:29
Перевод: Профессиональный (полное дублирование)
Субтитры: Русские (Форсированные, Полные)
Украинские (Форсированные, Полные)
Английские (Форсированные, Полные - 2 вида)
Режиссер: Ли Анкрич / Lee UnkrichРоли дублировали / озвучивали:Вуди - Александр Баргман / Tom Hanks
Базз Лайтер - Станислав Концевич / Tim Allen
Джесси - Юлия Рудина / Joan Cusack
Лотсо - Сергей Паршин / Ned Beatty
Мистер Картофельная Голова - Артур Ваха / Don Rickles
Миссис Картофельная Голова - Лидия Мельникова / Estelle Harris
Рекс - Валерий Захарьев / Wallace Shawn
Хамм - Алексей Гурьев / John Ratzenberger
Энди - Антон Горчаков / John Morris
Барби - Оксана Фёдорова / Jodi Benson
Кен - Николай Басков / Michael Keaton
Мистер Памперс - Алексей Макрецкий / Timothy Dalton
Описание: Энди почти 18 лет, ему остаётся 3 дня до отправки в колледж, в то время как его игрушки, в том числе Вуди и Базз Лайтер, гадают о своём будущем.
Куда забросит их судьба? На чердак, на свалку или, может быть, в детский сад «Солнышко»?
События развиваются в самом неожиданном направлении, и приключения полюбившихся героев продолжаются!
Доп. информация: Английские форсированные субтитры вшиты в видеопоток (hardsub) (так на БД).Проверено на встроенном плейере ТВ Samsung UE-C7000
Формат 3d: Anamorph OverUnder
Качество: BDrip
Контейнер: MKV
Видео: AVC / 1920х1080p / 23,976 fps / 8 320 Kbps
Аудио#1: Русский / AC3 / 48 KHz / 5.1 ch / 640 Kbps
Аудио#2: Украинский / AC3 / 48 KHz / 5.1 ch / 640 Kbps
Аудио#3: Английский / AC3 / 48 KHz / 5.1 ch / 640 Kbps
Субтитры: внешние srt (русские форсированные включены по умолчанию)

MediaInfo

General
UniqueID : 214199252437042848660978278818618575391 (0xA1254682CD69B5A5BA71A7B574DC8A1F)
Complete name : F:\Downloads\ToyStory3-3D.2010.halfOU.AC3-ash61\ToyStory3-3D.2010.halfOU.AC3-ash61.mkv
Format : Matroska
File size : 7.52 GiB
Duration : 1h 43mn
Overall bit rate : 10.4 Mbps
Movie name : Toy Story 3 (ash61)
Encoded date : UTC 2011-10-29 12:09:12
Writing application : mkvmerge v3.4.0 ('Rapunzel') сборка от May 15 2010 09:38:20
Writing library : libebml v0.8.0 + libmatroska v0.9.0
Video
ID : 1
Format : AVC
Format/Info : Advanced Video Codec
Format profile : High@L4.1
Format settings, CABAC : Yes
Format settings, ReFrames : 4 frames
Codec ID : V_MPEG4/ISO/AVC
Duration : 1h 43mn
Bit rate : 8 320 Kbps
Width : 1 920 pixels
Height : 1 080 pixels
Display aspect ratio : 16:9
Frame rate : 23.976 fps
Color space : YUV
Chroma subsampling : 4:2:0
Bit depth : 8 bits
Scan type : Progressive
Bits/(Pixel*Frame) : 0.167
Stream size : 5.99 GiB (80%)
Title : Rip by Ash61
Writing library : x264 core 113 r1884 7313bb5
Encoding settings : cabac=1 / ref=4 / deblock=1:-3:-3 / analyse=0x3:0x113 / me=umh / subme=9 / psy=1 / psy_rd=1.00:0.15 / mixed_ref=1 / me_range=16 / chroma_me=1 / trellis=2 / 8x8dct=1 / cqm=0 / deadzone=21,11 / fast_pskip=1 / chroma_qp_offset=-3 / threads=3 / sliced_threads=0 / nr=0 / decimate=1 / interlaced=0 / constrained_intra=0 / bframes=6 / b_pyramid=2 / b_adapt=2 / b_bias=0 / direct=3 / weightb=1 / open_gop=0 / weightp=2 / keyint=250 / keyint_min=23 / scenecut=40 / intra_refresh=0 / rc_lookahead=60 / rc=crf / mbtree=1 / crf=18.0 / qcomp=0.70 / qpmin=0 / qpmax=69 / qpstep=4 / ip_ratio=1.40 / aq=1:1.00
Audio #1
ID : 2
Format : AC-3
Format/Info : Audio Coding 3
Mode extension : CM (complete main)
Codec ID : A_AC3
Duration : 1h 43mn
Bit rate mode : Constant
Bit rate : 640 Kbps
Channel(s) : 6 channels
Channel positions : Front: L C R, Side: L R, LFE
Sampling rate : 48.0 KHz
Bit depth : 16 bits
Compression mode : Lossy
Stream size : 472 MiB (6%)
Title : Дубляж-640kbps
Language : Russian
Audio #2
ID : 3
Format : AC-3
Format/Info : Audio Coding 3
Mode extension : CM (complete main)
Codec ID : A_AC3
Duration : 1h 43mn
Bit rate mode : Constant
Bit rate : 640 Kbps
Channel(s) : 6 channels
Channel positions : Front: L C R, Side: L R, LFE
Sampling rate : 48.0 KHz
Bit depth : 16 bits
Compression mode : Lossy
Stream size : 472 MiB (6%)
Title : Дубляж-640kbps
Language : Ukrainian
Audio #3
ID : 4
Format : AC-3
Format/Info : Audio Coding 3
Mode extension : CM (complete main)
Codec ID : A_AC3
Duration : 1h 43mn
Bit rate mode : Constant
Bit rate : 640 Kbps
Channel(s) : 6 channels
Channel positions : Front: L C R, Side: L R, LFE
Sampling rate : 48.0 KHz
Bit depth : 16 bits
Compression mode : Lossy
Stream size : 472 MiB (6%)
Title : Original
Language : English
Menu
00:00:00.000 : :01
00:11:09.252 : :02
00:23:12.224 : :03
00:32:29.156 : :04
00:41:55.805 : :05
00:51:27.376 : :06
01:02:07.307 : :07
01:11:43.758 : :08
01:20:31.368 : :09
01:29:48.258 : :10

Скриншоты

Господа копипастеры, уважайте труд рипперов - пожалуйста,
не "забывайте" указывать авторство в своих релизах!
Благодарности релизеру (21)

Торрент:

Статус:

Размер:

Зарегистрирован   [ 2011-10-29 21:00 ]

проверено

7.52 GB

 
 Мнение о фильме (1)





С удовольствием пересмотрел в 3D. Как ни странно, но 3D в конвертациях первых двух частей мультфильма вышло лучше, чем здесь. Сам мультфильм прекрасен, стал очередным шедевром. Ждем 4 часть, которая уже анонсирована.
Оценка 3D: 7.
Оценка фильма: 10.