Торренты   
 
 

 

Рождественская история / A Christmas Carol (Роберт Земекис) [2009 г., BDRip, 1080p, Anamorph OverUnder]

Рейтинг 3D:
111 голосов
8.5
Рейтинг фильма:
111 голосов
8.4
 
Вы должны быть авторизированы,
чтобы ставить оценки


Рождественская история 3Д / A Christmas Carol 3D
Год выпуска: 2009
Страна: США
Жанр: фэнтези, драма, семейный, мультфильм
Продолжительность: 01:35:48
Перевод: Профессиональный (полное дублирование)
Режиссер: Роберт Земекис
В ролях: Джим Керри, Стив Валентайн, Дэрил Сабара, Сэйдж Райан, Эмбер Гейни Миде, Райан Очоа, Бобби Пейдж, Рон Боттитта, Сэмми Ханратти, Джулиан Холлоуэй
Описание: Это викторианская поучительная история о старом и ожесточившемся скупердяе Эбенезере Скрудже, который в течение одной ночи переживает испытание глубокого очищения. Мистер Скрудж - финансист/денежный меняла, который посвятил всю свою жизнь накоплению богатства. Он презирает всё, кроме денег, включая дружбу, любовь и рождественские праздники.
Качество:BDRip
Формат 3d: Anamorph OverUnder
Видео: MPEG4 Video (H264) 1920х1080 23.98fps 5820 Кбит/сек
Аудио: AC-3, 640 Кбит/сек, 6 канала(ов), 48,0 КГц, 16 бит (Дубляж, R5) Russian

Скриншоты



Gif анимация

МИ

Общее
Уникальный идентификатор : 237986674351674240233602254617578078519 (0xB30A90F5C0EBD18481E17C9ACB188137)
Полное имя : Рождественская история_half_OU.mkv
Формат : Matroska
Размер файла : 4,41 Гбайт
Продолжительность : 1 ч. 35 м.
Общий поток : 6591 Кбит/сек
Дата кодирования : UTC 2011-10-29 17:15:45
Программа кодирования : mkvmerge v4.3.0 ('Escape from the Island') сборка от Sep 5 2010 10:30:51
Библиотека кодирования : libebml v1.0.0 + libmatroska v1.0.0
Видео
Идентификатор : 1
Формат : AVC
Формат/Информация : Advanced Video Codec
Профиль формата : High@L4.0
Параметр CABAC формата : Да
Параметр ReFrames формата : 4 кадры
Идентификатор кодека : V_MPEG4/ISO/AVC
Продолжительность : 1 ч. 35 м.
Битрейт : 5820 Кбит/сек
Ширина : 1920 пикс.
Высота : 1080 пикс.
Соотношение сторон : 16:9
Частота кадров : 23,976 кадр/сек
Цветовое пространство : YUV
Подвыборка цветности : 4:2:0
Битовая глубина : 8 бит
Тип развёртки : Прогрессивная
Бит/(Пиксели*Кадры) : 0.117
Размер потока : 3,89 Гбайт (88%)
Библиотека кодирования : x264 core 116 r2074 2641b9e
Настройки программы : cabac=1 / ref=4 / deblock=1:-2:-2 / analyse=0x3:0x133 / me=umh / subme=10 / psy=1 / psy_rd=1.00:0.10 / mixed_ref=1 / me_range=16 / chroma_me=1 / trellis=2 / 8x8dct=1 / cqm=0 / deadzone=21,11 / fast_pskip=0 / chroma_qp_offset=-3 / threads=6 / sliced_threads=0 / nr=0 / decimate=1 / interlaced=0 / bluray_compat=0 / constrained_intra=0 / bframes=7 / b_pyramid=2 / b_adapt=2 / b_bias=0 / direct=3 / weightb=1 / open_gop=0 / weightp=2 / keyint=250 / keyint_min=23 / scenecut=40 / intra_refresh=0 / rc_lookahead=40 / rc=crf / mbtree=1 / crf=18.0 / qcomp=0.70 / qpmin=10 / qpmax=69 / qpstep=4 / frame-packing=4 / ip_ratio=1.40 / aq=1:0.90
Аудио
Идентификатор : 2
Формат : AC-3
Формат/Информация : Audio Coding 3
Расширение режима : CM (complete main)
Идентификатор кодека : A_AC3
Продолжительность : 1 ч. 35 м.
Вид битрейта : Постоянный
Битрейт : 640 Кбит/сек
Канал(ы) : 6 канала(ов)
Расположение каналов : Front: L C R, Side: L R, LFE
Частота : 48,0 КГц
Битовая глубина : 16 бит
Метод сжатия : С потерями
Размер потока : 439 Мбайт (10%)
Меню
00:00:00.000 : :00:00:00.000
00:07:39.459 : :00:07:39.459
00:16:04.046 : :00:16:04.046
00:29:14.753 : :00:29:14.753
00:37:13.231 : :00:37:13.231
00:41:04.462 : :00:41:04.462
00:44:54.275 : :00:44:54.275
00:57:07.090 : :00:57:07.090
01:01:44.326 : :01:01:44.326
01:08:41.951 : :01:08:41.951
01:11:08.014 : :01:11:08.014
01:16:13.569 : :01:16:13.569
01:19:31.767 : :01:19:31.767
01:25:21.867 : :01:25:21.867
01:27:20.527 : :01:27:20.527
01:30:19.414 : :01:30:19.414
Внимание! У кого на ТВ не показывает, не прет, не воспроизводит, не кажет, итд... прогоняем через MKVmergeGUI используя за основу эту инструкцию - MKVmergeGUI (инструкция по основным операциям редактирования) - Если не помогает, удаляем главы по этой же инструкции!
Остальные раздачи этого фильма (6)
Благодарности релизеру (31)

Торрент:

Статус:

Размер:

Зарегистрирован   [ 2012-05-06 21:21 ]

проверено

4.41 GB