Торренты   
 
 

 

Морские динозавры 3D: Путешествие в доисторический мир / Sea Rex 3D: Journey to a Prehistoric World [2010г, 1080p, BDrip, Anamorph OverUnder]

Рейтинг 3D:
6 голосов
9.2
Рейтинг фильма:
6 голосов
9.0
 
Вы должны быть авторизированы,
чтобы ставить оценки


Морские динозавры 3D: Путешествие в доисторический мир
Sea Rex 3D: Journey to a Prehistoric World

Год выпуска: 2010
Страны (Студии): Франция, Великобритания (Mantello
Brothers Productions, N3D Land Productions)
Жанр: Документальный, Познавательный
Продолжительность: 00:40:58
Перевод: Профессиональный (полное дублирование)
Режиссеры: Ронан Шапален, Паскаль Вонг / Ronan Chapalain,
Pascal Vuong
Рассказчик: Эммануил Виторган
Описание: "Откройте для себя самую интересную страницу жизни планеты Земля!
С этим фильмом в составе отважной команды вы перенесетесь на 200 млн. лет назад, в невероятный мир далеких времен. Впервые вы отправляетесь в незабываемое и опасное путешествие на встречу с повелителями океана знаменитого Юрского периода — гигантскими морскими динозаврами.
Вас ждут поразительные открытия о жизни древней и современной фауны, и невероятная красота подводных ландшафтов, от которых захватывает дух. Удивляйтесь, испытайте страх и восторг от встречи с великим прошлым нашей планеты. В совершенном стереоскопическом 3D изображении вы получите всю экзотику доисторической эпохи в полной реальности до мельчайших деталей. Мы подарим вам новый мир, о существовании которого вы даже не подозревали…"Проверено на встроенном плейере ТВ Samsung UE-C7000 Формат 3d: Anamorph OverUnder
Качество: BDrip
Контейнер: MKV
Видео: AVC / 1920х1080p / 23,976 fps / 7768 Kbps
Аудио#1: Русский / AC3 / 48 KHz / 5.1 ch / 640 Kbps
Аудио#2: Английский / AC3 / 48 KHz / 5.1 ch / 640 Kbps

MediaInfo

General
UniqueID : 206901467656567484375774696522668322576 (0x9BA7C5F112E7EF64BC365B6BF35C2F10)
Complete name : F:\Downloads\SeaRex-3D-JourneyToAPrehistoricWorld.2010.halfOU.AC3-ash61.mkv
Format : Matroska
File size : 2.64 GiB
Duration : 40mn 59s
Overall bit rate : 9 231 Kbps
Movie name : Sea Rex 3D: Journey to a Prehistoric World (ash61)
Encoded date : UTC 2011-10-30 17:31:57
Writing application : mkvmerge v3.4.0 ('Rapunzel') сборка от May 15 2010 09:38:20
Writing library : libebml v0.8.0 + libmatroska v0.9.0
Video
ID : 1
Format : AVC
Format/Info : Advanced Video Codec
Format profile : High@L4.1
Format settings, CABAC : Yes
Format settings, ReFrames : 4 frames
Format settings, GOP : M=1, N=16
Codec ID : V_MPEG4/ISO/AVC
Duration : 40mn 59s
Bit rate : 7 768 Kbps
Width : 1 920 pixels
Height : 1 080 pixels
Display aspect ratio : 16:9
Frame rate : 23.976 fps
Color space : YUV
Chroma subsampling : 4:2:0
Bit depth : 8 bits
Scan type : Progressive
Bits/(Pixel*Frame) : 0.156
Stream size : 2.22 GiB (84%)
Title : Rip by Ash61
Writing library : x264 core 113 r1884 7313bb5
Encoding settings : cabac=1 / ref=4 / deblock=1:-3:-3 / analyse=0x3:0x113 / me=umh / subme=9 / psy=1 / psy_rd=1.00:0.15 / mixed_ref=1 / me_range=16 / chroma_me=1 / trellis=2 / 8x8dct=1 / cqm=0 / deadzone=21,11 / fast_pskip=1 / chroma_qp_offset=-3 / threads=3 / sliced_threads=0 / nr=0 / decimate=1 / interlaced=0 / constrained_intra=0 / bframes=6 / b_pyramid=2 / b_adapt=2 / b_bias=0 / direct=3 / weightb=1 / open_gop=0 / weightp=2 / keyint=250 / keyint_min=23 / scenecut=40 / intra_refresh=0 / rc_lookahead=60 / rc=crf / mbtree=1 / crf=18.0 / qcomp=0.70 / qpmin=0 / qpmax=69 / qpstep=4 / ip_ratio=1.40 / aq=1:1.00
Audio #1
ID : 2
Format : AC-3
Format/Info : Audio Coding 3
Mode extension : CM (complete main)
Codec ID : A_AC3
Duration : 40mn 59s
Bit rate mode : Constant
Bit rate : 640 Kbps
Channel(s) : 6 channels
Channel positions : Front: L C R, Side: L R, LFE
Sampling rate : 48.0 KHz
Bit depth : 16 bits
Compression mode : Lossy
Stream size : 188 MiB (7%)
Language : Russian
Audio #2
ID : 3
Format : AC-3
Format/Info : Audio Coding 3
Mode extension : CM (complete main)
Codec ID : A_AC3
Duration : 40mn 59s
Bit rate mode : Constant
Bit rate : 640 Kbps
Channel(s) : 6 channels
Channel positions : Front: L C R, Side: L R, LFE
Sampling rate : 48.0 KHz
Bit depth : 16 bits
Compression mode : Lossy
Stream size : 188 MiB (7%)
Language : English
Menu
00:00:00.000 : :1
00:07:22.817 : :2
00:14:27.825 : :3
00:21:55.898 : :4
00:29:34.898 : :5
00:38:39.025 : :6

Скриншоты

Господа копипастеры, уважайте труд рипперов -
пожалуйста, не "забывайте" указывать авторство в своих релизах!
Благодарности релизеру (11)

Торрент:

Статус:

Размер:

Зарегистрирован   [ 2011-10-30 22:47 ]

проверено

2.64 GB