Торренты   
 
 

 

В гости к Робинсонам / Meet the Robinsons [2007г, 1080p, BDrip, Anamorph OverUnder]

Рейтинг 3D:
2 голосов
8.5
Рейтинг фильма:
2 голосов
8.5
 
Вы должны быть авторизированы,
чтобы ставить оценки


В гости к Робинсонам
Meet the Robinsons

Год выпуска: 2007
Страна: США (Walt Disney Pictures)
Жанр: Мультфильм, Фантастика, Приключения, Семейный
Продолжительность: 01:35:05
Перевод: Профессиональный (полное дублирование)
Режиссер: Стивен Дж. Андерсон / Stephen J. AndersonРоли дублировали / Озвучивали:Льюис - Денис Зубарев / Daniel Hansen
Уилбер - Ярослав Гарнаев / Wesley Singerman
Милдред - Елена Соловьева / Angela Bassett
Майкл "Goob" Ягубиан - Руслан Кулешов / Matthew Josten
Мистер Харрингтон - Александр Воеводин / John H. H. Ford
Миссис Харрингтон, Рецепционистка - Ольга Голованова /
Dara McGarry
Мистер Уиллерштайн - Олег Форостенко / Tom Kenny
Люсиль Кранклхорн - Людмила Шувалова / Laurie Metcalf
Тренер - Александр Груздев / Don Hall
Гастон - Евгений Рыбов / Don Hall
Стэнли - Дмитрий Череватенко / Paul Butcher
Лиззи - Юлия Довганишина / Tracey Miller-Zarneke
................
Описание: Льюис растет без родителей и страстно мечтает найти свою семью. На счастье, у Льюиса неуемное воображение и поразительные способности к изобретению разных фантастических приспособлений. Из разных попавшихся под руку деталей он мастерит устройство для проявки воспоминаний, чтобы увидеть хотя бы лицо своей мамы, которая еще младенцем подбросила его в сиротский приют.
Но на школьной выставке, где Льюис должен представить свой сканер памяти в действии, происходит невероятное. Сначала Льюис знакомится со своим ровесником Уилбером, который представляется прилетевшим из будущего сотрудником «Службы контроля времени». А потом еще один пришелец, зловещий тип в черном котелке, похищает изобретение Льюиса и устраивает на выставке полнейший разгром. Чтобы поймать мошенника и вернуть все на свои места, ребята отправятся в будущее, где Льюиса ждет масса захватывающих приключений.
Он прокатится на машине времени, подружится с роботом Карлом, поучаствует в схватке со сторожевым динозавром, спасет весь мир от происков злодея и его котелка, а самое главное — познакомится с многочисленной, дружной и взбалмошной семейкой Робинсонов, и найдет в их лице долгожданных родственников.Проверено на встроенном плейере ТВ Samsung UE-C7000 Формат 3d: Anamorph OverUnder
Качество: BDrip
Контейнер: MKV
Видео: AVC / 1920х1080p / 23,976 fps / 7322 Kbps
Аудио#1: Русский / AC3 / 48 KHz / 5.1 ch / 384 Kbps
Аудио#2: Украинский / AC3 / 48 KHz / 5.1 ch / 384 Kbps
Аудио#3: Английский / AC3 / 48 KHz / 5.1 ch / 640 Kbps

MediaInfo

General
UniqueID : 191702064171965655393828398930269930899 (0x9038797E01C65EF2902A18DB93F18593)
Complete name : F:\Downloads\MeetTheRobinsons-3D.2007.halfOU.AC3-ash61.mkv
Format : Matroska
File size : 6.01 GiB
Duration : 1h 36mn
Overall bit rate : 8 908 Kbps
Movie name : Meet the Robinsons (Ash61)
Encoded date : UTC 2011-10-31 14:47:30
Writing application : mkvmerge v3.4.0 ('Rapunzel') сборка от May 15 2010 09:38:20
Writing library : libebml v0.8.0 + libmatroska v0.9.0
Video
ID : 1
Format : AVC
Format/Info : Advanced Video Codec
Format profile : High@L4.1
Format settings, CABAC : Yes
Format settings, ReFrames : 4 frames
Format settings, GOP : M=1, N=16
Codec ID : V_MPEG4/ISO/AVC
Duration : 1h 36mn
Bit rate : 7 322 Kbps
Width : 1 920 pixels
Height : 1 080 pixels
Display aspect ratio : 16:9
Frame rate : 23.976 fps
Color space : YUV
Chroma subsampling : 4:2:0
Bit depth : 8 bits
Scan type : Progressive
Bits/(Pixel*Frame) : 0.147
Stream size : 4.94 GiB (82%)
Title : Rip by Ash61
Writing library : x264 core 113 r1884 7313bb5
Encoding settings : cabac=1 / ref=4 / deblock=1:-3:-3 / analyse=0x3:0x113 / me=umh / subme=9 / psy=1 / psy_rd=1.00:0.15 / mixed_ref=1 / me_range=16 / chroma_me=1 / trellis=2 / 8x8dct=1 / cqm=0 / deadzone=21,11 / fast_pskip=1 / chroma_qp_offset=-3 / threads=3 / sliced_threads=0 / nr=0 / decimate=1 / interlaced=0 / constrained_intra=0 / bframes=6 / b_pyramid=2 / b_adapt=2 / b_bias=0 / direct=3 / weightb=1 / open_gop=0 / weightp=2 / keyint=250 / keyint_min=23 / scenecut=40 / intra_refresh=0 / rc_lookahead=60 / rc=crf / mbtree=1 / crf=18.0 / qcomp=0.70 / qpmin=0 / qpmax=69 / qpstep=4 / ip_ratio=1.40 / aq=1:1.00
Audio #1
ID : 2
Format : AC-3
Format/Info : Audio Coding 3
Mode extension : CM (complete main)
Codec ID : A_AC3
Duration : 1h 36mn
Bit rate mode : Constant
Bit rate : 384 Kbps
Channel(s) : 6 channels
Channel positions : Front: L C R, Side: L R, LFE
Sampling rate : 48.0 KHz
Bit depth : 16 bits
Compression mode : Lossy
Stream size : 265 MiB (4%)
Title : Дубляж (Edited by Ash61)
Language : Russian
Audio #2
ID : 3
Format : AC-3
Format/Info : Audio Coding 3
Mode extension : CM (complete main)
Codec ID : A_AC3
Duration : 1h 36mn
Bit rate mode : Constant
Bit rate : 384 Kbps
Channel(s) : 6 channels
Channel positions : Front: L C R, Side: L R, LFE
Sampling rate : 48.0 KHz
Bit depth : 16 bits
Compression mode : Lossy
Stream size : 265 MiB (4%)
Title : Дубляж (Edited by Ash61)
Language : Ukrainian
Audio #3
ID : 4
Format : AC-3
Format/Info : Audio Coding 3
Mode extension : CM (complete main)
Codec ID : A_AC3
Duration : 1h 36mn
Bit rate mode : Constant
Bit rate : 640 Kbps
Channel(s) : 6 channels
Channel positions : Front: L C R, Side: L R, LFE
Sampling rate : 48.0 KHz
Bit depth : 16 bits
Compression mode : Lossy
Stream size : 442 MiB (7%)
Language : English
Menu
00:00:00.000 : :01
00:07:55.308 : :02
00:09:32.071 : :03
00:18:37.074 : :04
00:21:27.578 : :05
00:22:53.038 : :06
00:25:17.725 : :07
00:29:53.125 : :08
00:38:59.003 : :09
00:41:39.288 : :10
00:44:27.123 : :11
00:45:51.707 : :12
00:48:39.667 : :13
00:53:00.094 : :14
00:57:29.738 : :15
01:02:13.897 : :16
01:08:39.198 : :17
01:15:30.651 : :18
01:23:09.693 : :19
01:27:50.056 : :20

Скриншоты

Господа копипастеры, уважайте труд рипперов -
пожалуйста, не "забывайте" указывать авторство в своих релизах!
Остальные раздачи этого фильма (2)
Благодарности релизеру (8)

Торрент:

Статус:

Размер:

Зарегистрирован   [ 2011-10-31 20:14 ]

проверено

6.01 GB