Торренты   
 
 

 

Пастырь 3Д / Priest 3D (Скотт Чарльз Стюарт) [2011 г., SideBySide, 60fps, 720р, BD rip]

Рейтинг 3D:
80 голосов
7.9
Рейтинг фильма:
79 голосов
8.0
 
Вы должны быть авторизированы,
чтобы ставить оценки


Пастырь 3Д / Priest 3D
Год выпуска: 2011
Страна: США
Жанр: ужасы, фантастика, боевик, триллер
Продолжительность: 01:27:27
Перевод: Профессиональный (полное дублирование)
Режиссер: Скотт Чарльз Стюарт
В ролях: Пол Беттани, Карл Урбан, Кэм Жиганде, Мэгги Кью, Лили Коллинз, Брэд Дуриф, Стивен Мойер, Кристофер Пламмер, Алан Дэйл, Медкен Эмик
Описание: Далекое будущее. Миром правят религия и церковь. Священник, нарушая все церковные запреты, пытается выследить банду вампиров, похитивших его племянницу. В поисках ему помогают шериф и монахиня..
Дополнительно:
Внимание, это конвертация в 60 FPS
Формат 3d: SideBySide
Порядок ракурсов: Параллельная пара

Скриншоты



mediainfo

Общее
Уникальный идентификатор : 234563702474405784481162789671512376688 (0xB077536AA7BD1C319E54768E117D0570)
Полное имя : D:\3D\Rips 60 fps\Priest-3D.2011.SBS.60fps.720p.letterbox.AC3rus.mkv
Формат : Matroska
Версия формата : Version 2
Размер файла : 5,05 Гбайт
Продолжительность : 1 ч. 27 м.
Общий поток : 8275 Кбит/сек
Дата кодирования : UTC 2011-11-01 04:46:07
Программа кодирования : mkvmerge v4.6.0 ('Still Crazy After All These Years') сборка от Mar 10 2011 02:50:32
Библиотека кодирования : libebml v1.2.0 + libmatroska v1.1.0
Видео
Идентификатор : 2
Формат : AVC
Формат/Информация : Advanced Video Codec
Профиль формата : High@L5.0
Параметр CABAC формата : Да
Параметр ReFrames формата : 5 кадров
Идентификатор кодека : V_MPEG4/ISO/AVC
Продолжительность : 1 ч. 27 м.
Битрейт : 7662 Кбит/сек
Ширина : 2560 пикселей
Высота : 720 пикселей
Соотношение сторон : 3,556
Частота кадров : 59,940 кадров/сек
Цветовое пространство : YUV
Субдискретизация насыщенности : 4:2:0
Битовая глубина : 8 бит
Тип развёртки : Прогрессивная
Бит/(Пиксели*Кадры) : 0.069
Размер потока : 4,68 Гбайт (93%)
Библиотека кодирования : x264 core 116 r2057 0ba8a9c
Настройки программы : cabac=1 / ref=5 / deblock=1:-3:-3 / analyse=0x3:0x113 / me=umh / subme=9 / psy=1 / psy_rd=1.00:0.15 / mixed_ref=1 / me_range=16 / chroma_me=1 / trellis=2 / 8x8dct=1 / cqm=0 / deadzone=21,11 / fast_pskip=1 / chroma_qp_offset=-3 / threads=12 / sliced_threads=0 / nr=0 / decimate=1 / interlaced=0 / bluray_compat=0 / constrained_intra=0 / bframes=6 / b_pyramid=2 / b_adapt=2 / b_bias=0 / direct=3 / weightb=1 / open_gop=0 / weightp=2 / keyint=250 / keyint_min=25 / scenecut=40 / intra_refresh=0 / rc_lookahead=60 / rc=crf / mbtree=1 / crf=18.0 / qcomp=0.70 / qpmin=0 / qpmax=69 / qpstep=4 / ip_ratio=1.40 / aq=1:1.00
Аудио
Идентификатор : 1
Формат : AC-3
Формат/Информация : Audio Coding 3
Расширение режима : CM (complete main)
Идентификатор кодека : A_AC3
Продолжительность : 1 ч. 27 м.
Вид битрейта : Постоянный
Битрейт : 448 Кбит/сек
Каналы : 6 каналов
Расположение каналов : Front: L C R, Side: L R, LFE
Частота : 48,0 КГц
Битовая глубина : 16 бит
Метод сжатия : С потерями
Размер потока : 280 Мбайт (5%)
Остальные раздачи этого фильма (7)
Благодарности релизеру (5)

Торрент:

Статус:

Размер:

Зарегистрирован   [ 2011-11-01 09:09 ]

проверено

5.05 GB

 
 Мнение о фильме (27)

1, 2  След.






Неплохо рекомендую к просмотру.
 

неплохо и всё
 

фильм не плох!!!
 

Фильм да, ничего. Темноват только немного.
 

хороший фильм.
 

Нормальный фильм для любителей жанра.
 

обалденный фильм досих пор под впечатлением!!!
 

Фильм не интересный! А вот 3d не плохое.
 

И фильм неплохой и 3Д впечетляет!
 

действительно фильм не плох,и сюжет и прочее.но почему звук есть,а видео-ряда нет?
 

совсем недурно)
 

Фильм мне понравился и 3d на уроне
 

На разок
 

Фильм не плохой, посмотреть можно.
Благодарствуйте за труды Ваши!
 
сергей2010infiniti Профиль 18-Окт-2013 04:44

Хороший фильм в хорошем формате.
 

Фильм смотреть можно. 3D как во всех работах ash61 на высоте.
 

Блин , фильм норм так на раз посмотреть , а 3д никакущее же , самое худшее 3д из всего что я только видел...
 

И 3D и фильм нормуль
 

Можно посмотреть и не один раз!
Особенно любителям сюжета.
Ваши труды приносят радость всем!
 
сергей2010infiniti Профиль 08-Ноя-2013 00:02

3D слабенькое... это я так понимаю конверт, причем не лучший
а фильмец да, забавный, чистый киберпанк такой + вампиры... разок посмотреть вполне можно
 

Страница 1 из 2

1, 2  След.