Торренты   
 
 


Цыпленок Цыпа / Chicken Little [2005г, 1080p, BDrip, Anamorph OverUnder]

Рейтинг 3D:
8 голосов
5.3
Рейтинг фильма:
8 голосов
4.9
 
Вы должны быть авторизированы,
чтобы ставить оценки


Цыпленок Цыпа
Chicken Little

Год выпуска: 2005
Страна: США (Walt Disney Pictures)
Жанр: Мультфильм, Фантастика, Приключения, Семейный
Продолжительность: 01:21:07
Перевод: Профессиональный (полное дублирование)
Режиссер: Марк Диндал / Mark Dindal
Роли озвучивали: Zach Braff, Garry Marshall, Don Knotts, Patrick Stewart, Amy Sedaris, Steve Zahn, Joan Cusack, Wallace Shawn, Harry Shearer, Fred Willard, Catherine O'Hara
Роли дублировали: Сергей Уманов, Адриан Ростовский, Валерий Кухарешин, Валерий Никитенко, Ксения Бржезовская, Андрей Гаврюшкин, Виктория Казанцева, Марк Макаренков, Олег Фёдоров, Валерий Соловьев, Елена Терновая, Станислав Концевич
Описание: В основе фильма лежит старая басня про цыпленка, который вопил о том, что небеса падают на землю каждый раз, когда ему на голову падал желудь. Вот уже год, как Цыпленок пытается преодолеть позор своей ошибки (про падающие небеса) и жить как ни в чем не бывало.
Но — увы! — желающих дружить с неудачником немного, и поэтому в товарищах у него ходят такие же изгои, как и он сам. Но однажды действительно случается несчастье — пора бить тревогу! Но кто поверит Цыпленку, ведь он уже опростоволосился однажды…
Теперь будущее планеты зависит от скромных бойцов невидимого фронта: свиненка-акселерата, убогонькой уточки, золотой рыбки-мутанта и Цыпленка, с которым никто не хочет знаться…Проверено на встроенном плейере ТВ Samsung UE-C7000 Формат 3d: Anamorph OverUnder
Качество: BDrip
Контейнер: MKV
Видео: AVC / 1920х1080p / 23,976 fps / 8397 Kbps
Аудио#1: Русский / AC3 / 48 KHz / 5.1 ch / 448 Kbps
Аудио#2: Английский / AC3 / 48 KHz / 5.1 ch / 640 Kbps

MediaInfo

General
UniqueID : 186937893925038035512819898162548389602 (0x8CA2EDC38C8DDF8782FC8118909136E2)
Complete name : F:\Downloads\ChickenLittle-3D.2005.halfOU.AC3-ash61.mkv
Format : Matroska
File size : 5.49 GiB
Duration : 1h 21mn
Overall bit rate : 9 678 Kbps
Movie name : Chicken Little 3D (ash61)
Encoded date : UTC 2011-11-01 19:37:31
Writing application : mkvmerge v3.4.0 ('Rapunzel') сборка от May 15 2010 09:38:20
Writing library : libebml v0.8.0 + libmatroska v0.9.0
Video
ID : 1
Format : AVC
Format/Info : Advanced Video Codec
Format profile : High@L4.1
Format settings, CABAC : Yes
Format settings, ReFrames : 4 frames
Format settings, GOP : M=1, N=16
Codec ID : V_MPEG4/ISO/AVC
Duration : 1h 21mn
Bit rate : 8 397 Kbps
Width : 1 920 pixels
Height : 1 080 pixels
Display aspect ratio : 16:9
Frame rate : 23.976 fps
Color space : YUV
Chroma subsampling : 4:2:0
Bit depth : 8 bits
Scan type : Progressive
Bits/(Pixel*Frame) : 0.169
Stream size : 4.76 GiB (87%)
Title : Rip by Ash61
Writing library : x264 core 113 r1884 7313bb5
Encoding settings : cabac=1 / ref=4 / deblock=1:-3:-3 / analyse=0x3:0x113 / me=umh / subme=9 / psy=1 / psy_rd=1.00:0.15 / mixed_ref=1 / me_range=16 / chroma_me=1 / trellis=2 / 8x8dct=1 / cqm=0 / deadzone=21,11 / fast_pskip=1 / chroma_qp_offset=-3 / threads=3 / sliced_threads=0 / nr=0 / decimate=1 / interlaced=0 / constrained_intra=0 / bframes=6 / b_pyramid=2 / b_adapt=2 / b_bias=0 / direct=3 / weightb=1 / open_gop=0 / weightp=2 / keyint=250 / keyint_min=23 / scenecut=40 / intra_refresh=0 / rc_lookahead=60 / rc=crf / mbtree=1 / crf=18.0 / qcomp=0.70 / qpmin=0 / qpmax=69 / qpstep=4 / ip_ratio=1.40 / aq=1:1.00
Audio #1
ID : 2
Format : AC-3
Format/Info : Audio Coding 3
Mode extension : CM (complete main)
Codec ID : A_AC3
Duration : 1h 21mn
Bit rate mode : Constant
Bit rate : 448 Kbps
Channel(s) : 6 channels
Channel positions : Front: L C R, Side: L R, LFE
Sampling rate : 48.0 KHz
Bit depth : 16 bits
Compression mode : Lossy
Stream size : 260 MiB (5%)
Language : Russian
Audio #2
ID : 3
Format : AC-3
Format/Info : Audio Coding 3
Mode extension : CM (complete main)
Codec ID : A_AC3
Duration : 1h 21mn
Bit rate mode : Constant
Bit rate : 640 Kbps
Channel(s) : 6 channels
Channel positions : Front: L C R, Side: L R, LFE
Sampling rate : 48.0 KHz
Bit depth : 16 bits
Compression mode : Lossy
Stream size : 371 MiB (7%)
Language : English
Menu
00:00:00.000 : :01
00:03:58.947 : :02
00:05:48.056 : :03
00:10:02.936 : :04
00:15:08.658 : :05
00:21:43.552 : :06
00:28:13.942 : :07
00:30:56.980 : :08
00:36:35.443 : :09
00:40:15.246 : :10
00:43:31.734 : :11
00:46:29.078 : :12
00:50:11.842 : :13
00:52:27.770 : :14
00:56:12.202 : :15
00:59:19.431 : :16
01:01:27.851 : :17
01:07:18.201 : :18
01:10:52.248 : :19
01:14:01.479 : :20

Скриншоты

Господа копипастеры, пожалуйста, уважайте труд рипперов -
не "забывайте" указывать авторство в своих релизах!
Благодарности релизеру (15)

Торрент:

Статус:

Размер:

Зарегистрирован   [ 2011-11-02 00:32 ]

проверено

5.49 GB

 
 Мнение о фильме (4)





Привет из Казахстана.
Спасибо огромное, добрая мультяка.
Спасибо.
 

благодарю нормальный мульт
 

Очень добротный мульт и 3D. Спасибо за релиз.
 

От Свина в восторге!!!
Фильм четко для детей.