Торренты   
 
 

 

Тачки II / Cars II (Джон Лассетер, Брэд Льюис) [2011 г., BDRip 1080p, Full OverUnder]

Рейтинг 3D:
3 голосов
8.7
Рейтинг фильма:
3 голосов
8.0
 
Вы должны быть авторизированы,
чтобы ставить оценки


Год выпуска: 2011
Страна: США
Жанр: Мультфильм, Комедия, Приключения, Семейный
Продолжительность: 01:46:59
Перевод: Профессиональный (полное дублирование)
Режиссер: Джон Лассетер, Брэд Льюис
В ролях: Молния МакКуинн - Дмитрий Харатьян / Owen Wilson, Мэтр - Сергей Кузнецов / Larry "The Cable Guy", Флинн МакМиссайл - Леонид Каневский / Michael Caine, Холли Шифтвелл - Жанна Фриске / Emily Mortimer, Сэр Майлс Экслрод - Леонид Ярмольник / Eddie Izzard, Франческо Бернулли - Сергей Дьячков / John Turturro, Брент Мустангбургер - Александр Балакирев / Brent Musburger, Грем - Сергей Куприянов / Joe Mantegna, Профессор Ц - Юрий Герцман / Thomas Kretschmann, Эйсер - Алексей Макрецкий / Peter Jacobson, Салли - Алика Смехова / Bonnie Hunt, Дэвид Хоббскап - Михаил Захаров / David Hobbs, Королева - Татьяна Гордеева / Vanessa Redgrave, Рэймон - Андрей Машков / Cheech Marin, Льюис Хэмилтон - Александр Лушин / Lewis Hamilton, Фернандо Алонсо - Fernando Alonso, Виталий Петров - Виталий Петров, Себастьян Шнелль - Sebastian Vettel, Жак Вильнёв - Jacques Villeneuve
Описание: Молния МакКуин и его друг Мэтр отправляются в международное путешествие — когда МакКуин получает шанс участвовать в соревнованиях для самых быстрых машин в мире, Мировом Гран-При. Этапы этих престижных гонок заведут друзей в Токио, на набережные Парижа, на побережье Италии, и на улицы туманного Лондона.

Формат 3d: OverUnder
Видео: AVC, h264, 1920х1616 , 23,976 кадр/сек, 11,5 Мбит/сек
Аудио: Rus, AC-3, 6 каналов, 448 Кбит/сек, 48,0 КГц
Аудио: Ukr, AC-3, 2 канала, 192 Кбит/сек, 48,0 КГц
Аудио: Eng, AC-3, 6 каналов, 640 Кбит/сек, 48,0 КГц

Скриншоты



mi

Общее
Полное имя : CARS II 1080p.mkv
Формат : Matroska
Размер файла : 9,74 Гбайт
Продолжительность : 1 ч. 47 м.
Общий поток : 13,0 Мбит/сек
Дата кодирования : UTC 2011-11-01 03:46:54
Программа кодирования : mkvmerge v3.4.0 ('Rapunzel') сборка от May 15 2010 09:38:20
Библиотека кодирования : libebml v0.8.0 + libmatroska v0.9.0
Видео
Идентификатор : 1
Формат : AVC
Формат/Информация : Advanced Video Codec
Профиль формата : High@L5.0
Параметр CABAC формата : Да
Параметр ReFrames формата : 4 кадры
Идентификатор кодека : V_MPEG4/ISO/AVC
Продолжительность : 1 ч. 47 м.
Битрейт : 11,5 Мбит/сек
Ширина : 1920 пикс.
Высота : 1616 пикс.
Соотношение сторон : 1,188
Частота кадров : 23,976 кадр/сек
Цветовое пространство : YUV
Подвыборка цветности : 4:2:0
Битовая глубина : 8 бит
Тип развёртки : Прогрессивная
Бит/(Пиксели*Кадры) : 0.154
Размер потока : 8,59 Гбайт (88%)
Библиотека кодирования : x264 core 119 r2106 07efeb4
Настройки программы : cabac=1 / ref=4 / deblock=1:-3:-3 / analyse=0x3:0x113 / me=umh / subme=8 / psy=1 / psy_rd=1.00:0.00 / mixed_ref=1 / me_range=16 / chroma_me=1 / trellis=2 / 8x8dct=1 / cqm=0 / deadzone=21,11 / fast_pskip=1 / chroma_qp_offset=-3 / threads=9 / sliced_threads=0 / nr=0 / decimate=1 / interlaced=0 / bluray_compat=0 / constrained_intra=0 / bframes=6 / b_pyramid=0 / b_adapt=2 / b_bias=0 / direct=3 / weightb=1 / open_gop=0 / weightp=2 / keyint=250 / keyint_min=23 / scenecut=40 / intra_refresh=0 / rc_lookahead=40 / rc=crf / mbtree=1 / crf=18.0 / qcomp=0.60 / qpmin=0 / qpmax=69 / qpstep=4 / ip_ratio=1.40 / aq=1:1.00
Аудио #1
Идентификатор : 2
Формат : AC-3
Формат/Информация : Audio Coding 3
Расширение режима : CM (complete main)
Идентификатор кодека : A_AC3
Продолжительность : 1 ч. 47 м.
Вид битрейта : Постоянный
Битрейт : 448 Кбит/сек
Канал(ы) : 6 канала(ов)
Расположение каналов : Front: L C R, Side: L R, LFE
Частота : 48,0 КГц
Битовая глубина : 16 бит
Метод сжатия : С потерями
Размер потока : 343 Мбайт (3%)
Язык : Russian
Аудио #2
Идентификатор : 3
Формат : AC-3
Формат/Информация : Audio Coding 3
Расширение режима : CM (complete main)
Идентификатор кодека : A_AC3
Продолжительность : 1 ч. 47 м.
Вид битрейта : Постоянный
Битрейт : 192 Кбит/сек
Канал(ы) : 2 канала(ов)
Расположение каналов : Front: L R
Частота : 48,0 КГц
Битовая глубина : 16 бит
Метод сжатия : С потерями
Размер потока : 147 Мбайт (1%)
Язык : Ukrainian
Аудио #3
Идентификатор : 4
Формат : AC-3
Формат/Информация : Audio Coding 3
Расширение режима : CM (complete main)
Идентификатор кодека : A_AC3
Продолжительность : 1 ч. 47 м.
Вид битрейта : Постоянный
Битрейт : 640 Кбит/сек
Канал(ы) : 6 канала(ов)
Расположение каналов : Front: L C R, Side: L R, LFE
Частота : 48,0 КГц
Битовая глубина : 16 бит
Метод сжатия : С потерями
Размер потока : 490 Мбайт (5%)
Язык : English
Скриншоты сравнения
Благодарности релизеру (4)

Торрент:

Статус:

Размер:

Зарегистрирован   [ 2011-11-02 13:04 ]

проверено

9.74 GB