Торренты   
 
 


Смурфики / The Smurfs (Раджа Госнелл / Raja Gosnell) [2011 г., OverUnder, BDrip, 720p]

Рейтинг 3D:
14 голосов
6.8
Рейтинг фильма:
13 голосов
6.7
 
Вы должны быть авторизированы,
чтобы ставить оценки


«Какого 'смурфа' мы тут делаем?» Год выпуска: 2011
Страна: США
Студия: Columbia Pictures, Kerner Entertainment Company, Sony Pictures Animation
Жанр: мультфильм, фэнтези, комедия, приключения, семейный
Продолжительность: 01:42:43
Перевод: Профессиональный (полное дублирование)-Режиссер:
Раджа Госнелл / Raja Gosnell
В ролях:
Нил Патрик Харрис, Джейма Мейс, Хэнк Азария, София Вергара, Тим Ганн
Смурфиков озвучивали:
Том Кэйн, Джонатан Уинтерс, Алан Камминг, Кэти Перри, Фред Армизен, Джордж Лопез, Антон Ельчин
Роли дублировали:
Армен Джигарханян, Станислав Концевич, Александр Майоров, Наталья Виноградова, Светлана Кузнецова, Сергей Паршин, Борис Хасанов, Анна Шурочкина (Нюша), Александр Новиков, Станислав Никольский, Евгений Березкин, Виктор Костецкий-Описание:
По сюжету, спасаясь от злого волшебника Гаргамеля, крошечные смурфики оказываются за пределами родной деревни. Из своего волшебного мира они попадают прямиком в наш мир, а именно в Центральный парк города Нью-Йорк. Теперь маленьким отважным смурфикам предстоит отыскать дорогу домой и не попасть в лапы Гаргамеля.
-
Качество: BDrip
Контейнер: MKV
Формат 3D: OverUnder / Вертикальная стереопара
Видео кодек: x264
Аудио кодек: AC3
Видео: x264, 1280x1440, 23.976 кадр/сек, 10,9 Мбит/сек
Аудио 1: русский; AC3, 6 каналов, 640 Кбит/сек, 48,0 КГц
Аудио 2: украинский; AC3, 6 каналов, 640 Кбит/сек, 48,0 КГц (отдельно на Narod.Ru)
Аудио 3: английский; AC3, 6 каналов, 448 Кбит/сек, 48,0 КГц (отдельно на Narod.Ru)

Знаете ли вы, что...

  • Впервые мир увидел смурфов в журнале комиксов «Le Journal de Spirou» 23 октября 1958 года.

СКРИНШОТЫ

MI


Общее
Уникальный идентификатор : 247322311511071574264492823603589799707 (0xBA108B68A3BEE996A189B9751DC5DF1B)
Полное имя : M:\3D-RuGroup\The.Smurfs.3D.2011.BD3DRip.720p.OU.x264.AC3.Rus.mkv
Формат : Matroska
Версия формата : Version 2
Размер файла : 8,44 Гбайт
Продолжительность : 1 ч. 42 м.
Общий поток : 11,8 Мбит/сек
Название фильма : The.Smurfs.3D.2011.BD3DRip.720p.OU.x264.AC3.Rus
Дата кодирования : UTC 2011-11-02 14:26:59
Программа кодирования : mkvmerge v3.4.0 ('Rapunzel') сборка от May 15 2010 09:38:20
Библиотека кодирования : libebml v0.8.0 + libmatroska v0.9.0
Видео
Идентификатор : 1
Формат : AVC
Формат/Информация : Advanced Video Codec
Профиль формата : High@L4.0
Параметр CABAC формата : Да
Параметр ReFrames формата : 4 кадра
Идентификатор кодека : V_MPEG4/ISO/AVC
Продолжительность : 1 ч. 42 м.
Битрейт : 10,9 Мбит/сек
Ширина : 1280 пикселей
Высота : 1440 пикселей
Соотношение сторон : 0,889
Частота кадров : 23,976 кадра/сек
Цветовое пространство : YUV
Субдискретизация насыщенности : 4:2:0
Битовая глубина : 8 бит
Тип развёртки : Прогрессивная
Бит/(Пиксели*Кадры) : 0.246
Размер потока : 7,81 Гбайт (93%)
Заголовок : The Smurfs by AnTo}{@ (aka elephant, itsamna)
Библиотека кодирования : x264 core 116 r2074 2641b9e
Настройки программы : cabac=1 / ref=4 / deblock=1:-3:-3 / analyse=0x3:0x133 / me=umh / subme=9 / psy=1 / psy_rd=1.00:0.15 / mixed_ref=1 / me_range=32 / chroma_me=1 / trellis=2 / 8x8dct=1 / cqm=0 / deadzone=21,11 / fast_pskip=0 / chroma_qp_offset=-3 / threads=3 / sliced_threads=0 / nr=0 / decimate=1 / interlaced=0 / bluray_compat=0 / constrained_intra=0 / bframes=6 / b_pyramid=2 / b_adapt=2 / b_bias=0 / direct=3 / weightb=1 / open_gop=0 / weightp=2 / keyint=250 / keyint_min=23 / scenecut=40 / intra_refresh=0 / rc_lookahead=40 / rc=crf / mbtree=1 / crf=18.0 / qcomp=0.70 / qpmin=10 / qpmax=69 / qpstep=4 / ip_ratio=1.40 / aq=1:0.70
Аудио
Идентификатор : 2
Формат : AC-3
Формат/Информация : Audio Coding 3
Расширение режима : CM (complete main)
Идентификатор кодека : A_AC3
Продолжительность : 1 ч. 42 м.
Вид битрейта : Постоянный
Битрейт : 640 Кбит/сек
Каналы : 6 каналов
Расположение каналов : Front: L C R, Side: L R, LFE
Частота : 48,0 КГц
Битовая глубина : 16 бит
Метод сжатия : С потерями
Размер потока : 470 Мбайт (5%)
Заголовок : Russian DUB (5.1 / 48 kHz / 640 kbps)
Язык : Russian
Меню
00:00:00.000 : :CHAPTER01
00:04:48.705 : :CHAPTER02
00:11:22.265 : :CHAPTER03
00:16:17.894 : :CHAPTER04
00:21:10.436 : :CHAPTER05
00:26:33.300 : :CHAPTER06
00:33:15.076 : :CHAPTER07
00:39:43.131 : :CHAPTER08
00:46:04.971 : :CHAPTER09
00:53:22.950 : :CHAPTER10
00:59:28.440 : :CHAPTER11
01:07:26.876 : :CHAPTER12
01:15:08.963 : :CHAPTER13
01:22:27.734 : :CHAPTER14
01:28:31.431 : :CHAPTER15
01:34:21.489 : :CHAPTER16
Остальные раздачи этого фильма (5)
Благодарности релизеру (1)

Торрент:

Статус:

Размер:

Зарегистрирован   [ 2011-11-02 20:09 ]

проверено

8.44 GB