Торренты   
 
 


Король Лев 3D / The Lion King 3D (Роджер Аллерс, Роб Минкофф) [2011 г., Anaglyph, red'cyan (Dubois)]

Рейтинг 3D:
Пока никто не голосовал
Рейтинг фильма:
Пока никто не голосовал
 
Вы должны быть авторизированы,
чтобы ставить оценки


© Закрыто правообладателем
Год выпуска: 2011
Страна: США
Жанр: Мультфильм, Мюзикл, Драма, Комедия, Приключения, Семейный
Продолжительность: 01:28:49
Перевод:
- Профессиональный (полное дублирование)
- Двухголосый закадровый (П.Гланц и Н.Казакова)
- Одноголосый закадровый (А.Гаврилов (ранний))
Режиссер: Роджер Аллерс, Роб Минкофф
В ролях: Симба (взрослый) - Евгений Иванов / Мэттью Бродерик
Муфаса - Валерий Никитенко / Джеймс Эрл Джонс
Тимон - Сергей Дьячков, Сергей Савченко (вокал) / Натан
Лейн
Пумба - Раф Кашапов, Андрей Шамин (вокал) / Эрни Сабелла
Нала (взрослая) - Татьяна Михалевкина / Мойра Келли
Шрам - Юрий Лазарев / Джереми Айронс
Зазу - Георгий Корольчук / Роуэн Эткинсон
Шензи - Татьяна Рассказова / Вупи Голдберг
Банзай - Валерий Захарьев / Чич Марин
Рафики - Игорь Шибанов / Роберт Гийом
Сараби - Александра Кожевникова / Мэдж Синклер
Описание: У величественного Короля-Льва Муфасы рождается наследник по имени Симба. Уже в детстве любознательный малыш становится жертвой интриг своего завистливого дяди Шрама, мечтающего о власти.
Симба познаёт горе утраты, предательство и изгнание, но в конце концов обретает верных друзей и находит любимую. Закалённый испытаниями, он в нелёгкой борьбе отвоёвывает своё законное место в «Круге жизни», осознав, что значит быть настоящим Королём.
Формат 3d: Anaglyph (Дюбуа)
Цвета очков:

Скриншоты

MediaInfo

General
Format : Matroska
Format version : Version 2
File size : 5.04 GiB
Duration : 1h 28mn
Overall bit rate : 8 127 Kbps
Movie name : The Lion King (ash61)
Encoded date : UTC 2011-07-22 11:58:01
Writing application : mkvmerge v4.4.0 ('Die Wiederkehr') сборка от Oct 31 2010 21:52:48
Writing library : libebml v1.0.0 + libmatroska v1.0.0
Video
ID : 1
Format : AVC
Format/Info : Advanced Video Codec
Format profile : High@L4.0
Format settings, CABAC : Yes
Format settings, ReFrames : 4 frames
Codec ID : V_MPEG4/ISO/AVC
Duration : 1h 28mn
Bit rate : 5 790 Kbps
Width : 1 920 pixels
Height : 1 080 pixels
Display aspect ratio : 16:9
Frame rate : 23.976 fps
Color space : YUV
Chroma subsampling : 4:2:0
Bit depth : 8 bits
Scan type : Progressive
Bits/(Pixel*Frame) : 0.116
Stream size : 3.59 GiB (71%)
Writing library : x264 core 115 r1995 c1e60b9
Encoding settings : cabac=1 / ref=4 / deblock=1:-2:-2 / analyse=0x3:0x113 / me=umh / subme=9 / psy=1 / psy_rd=1.00:0.15 / mixed_ref=1 / me_range=16 / chroma_me=1 / trellis=2 / 8x8dct=1 / cqm=0 / deadzone=21,11 / fast_pskip=1 / chroma_qp_offset=-3 / threads=6 / sliced_threads=0 / nr=0 / decimate=1 / interlaced=0 / bluray_compat=0 / constrained_intra=0 / bframes=6 / b_pyramid=0 / b_adapt=2 / b_bias=0 / direct=3 / weightb=1 / open_gop=0 / weightp=2 / keyint=250 / keyint_min=23 / scenecut=40 / intra_refresh=0 / rc_lookahead=40 / rc=crf / mbtree=1 / crf=18.0 / qcomp=0.60 / qpmin=10 / qpmax=69 / qpstep=4 / ip_ratio=1.40 / aq=1:1.00
Audio #1
ID : 2
Format : AC-3
Format/Info : Audio Coding 3
Mode extension : CM (complete main)
Codec ID : A_AC3
Duration : 1h 28mn
Bit rate mode : Constant
Bit rate : 448 Kbps
Channel(s) : 6 channels
Channel positions : Front: L C R, Side: L R, LFE
Sampling rate : 48.0 KHz
Bit depth : 16 bits
Compression mode : Lossy
Stream size : 285 MiB (6%)
Title : Дублированный перевод
Language : Russian
Audio #2
ID : 3
Format : AC-3
Format/Info : Audio Coding 3
Mode extension : CM (complete main)
Codec ID : A_AC3
Duration : 1h 28mn
Bit rate mode : Constant
Bit rate : 640 Kbps
Channel(s) : 6 channels
Channel positions : Front: L C R, Side: L R, LFE
Sampling rate : 48.0 KHz
Bit depth : 16 bits
Compression mode : Lossy
Stream size : 407 MiB (8%)
Title : П.Гланц и Н.Казакова
Language : Russian
Audio #3
ID : 4
Format : AC-3
Format/Info : Audio Coding 3
Mode extension : CM (complete main)
Codec ID : A_AC3
Duration : 1h 28mn
Bit rate mode : Constant
Bit rate : 448 Kbps
Channel(s) : 6 channels
Channel positions : Front: L C R, Side: L R, LFE
Sampling rate : 48.0 KHz
Bit depth : 16 bits
Compression mode : Lossy
Stream size : 285 MiB (6%)
Title : А.Гаврилов
Language : Russian
Audio #4
ID : 5
Format : AC-3
Format/Info : Audio Coding 3
Mode extension : CM (complete main)
Codec ID : A_AC3
Duration : 1h 28mn
Bit rate mode : Constant
Bit rate : 640 Kbps
Channel(s) : 6 channels
Channel positions : Front: L C R, Side: L R, LFE
Sampling rate : 48.0 KHz
Bit depth : 16 bits
Compression mode : Lossy
Stream size : 407 MiB (8%)
Language : English
Menu
00:00:00.000 : :01
00:05:00.592 : :02
00:08:30.927 : :03
00:11:49.500 : :04
00:14:30.078 : :05
00:18:11.549 : :06
00:23:15.269 : :07
00:25:56.638 : :08
00:30:44.718 : :09
00:36:12.670 : :10
00:40:34.599 : :11
00:41:34.951 : :12
00:44:37.466 : :13
00:48:41.085 : :14
00:50:27.733 : :15
00:53:35.295 : :16
00:58:11.363 : :17
01:01:17.090 : :18
01:02:52.852 : :19
01:09:10.146 : :20
01:13:01.544 : :21
01:17:02.827 : :22
01:21:05.652 : :23
01:23:44.394 : :24
Благодарности релизеру (1)

Торрент:

Статус:

Размер:

Зарегистрирован   [ 2011-11-02 20:27 ]

© закрыто правообладателем

5.04 GB