Торренты   
 
 


Twixtor Test [2011 г., SideBySide]

Рейтинг 3D:
Пока никто не голосовал
Рейтинг фильма:
Пока никто не голосовал
 
Вы должны быть авторизированы,
чтобы ставить оценки


Twixtor Test
Год выпуска: 2011
Страна: Россия
Жанр: игры
Продолжительность: 00:05:13 общая-Описание: Попробовал сделать замедление видео в 5, 20 и 200 раз при помощи плагина Twixtor, на фрагментах игры FlatOut2 с 30fps.-Формат 3d: SideBySide
Порядок ракурсов: Перекрестная пара
Видео: AVC / 2560х720 / 30.000 fps

MediaInfo

Код:
General
Unique ID                        : 220334673241771520474918750068753436312 (0xA5C2EA1C8FAFC3268E3E27828C920E98)
Complete name                    : L:\Twixtor\FlatOut2_x200 slow.mkv
Format                           : Matroska
File size                        : 279 MiB
Duration                         : 3mn 58s
Overall bit rate                 : 9 818 Kbps
Encoded date                     : UTC 2011-11-03 06:51:13
Writing application              : mkvmerge v4.0.0 ('The Stars were mine') сборка от Jun  6 2010 16:18:42
Writing library                  : libebml v1.0.0 + libmatroska v1.0.0
Video
ID                               : 1
Format                           : AVC
Format/Info                      : Advanced Video Codec
Format profile                   : High@L5.0
Format settings, CABAC           : Yes
Format settings, ReFrames        : 5 frames
Codec ID                         : V_MPEG4/ISO/AVC
Duration                         : 3mn 58s
Bit rate                         : 9 303 Kbps
Width                            : 2 560 pixels
Height                           : 720 pixels
Display aspect ratio             : 3.556
Frame rate                       : 30.000 fps
Color space                      : YUV
Chroma subsampling               : 4:2:0
Bit depth                        : 8 bits
Scan type                        : Progressive
Bits/(Pixel*Frame)               : 0.168
Stream size                      : 264 MiB (95%)
Writing library                  : x264 core 116 r2074 2641b9e
Encoding settings                : cabac=1 / ref=5 / deblock=1:-3:-3 / analyse=0x3:0x113 / me=umh / subme=9 / psy=1 / psy_rd=1.00:0.15 / mixed_ref=1 / me_range=16 / chroma_me=1 / trellis=2 / 8x8dct=1 / cqm=0 / deadzone=21,11 / fast_pskip=1 / chroma_qp_offset=-3 / threads=6 / sliced_threads=0 / nr=0 / decimate=1 / interlaced=0 / bluray_compat=0 / constrained_intra=0 / bframes=6 / b_pyramid=2 / b_adapt=2 / b_bias=0 / direct=3 / weightb=1 / open_gop=0 / weightp=2 / keyint=250 / keyint_min=25 / scenecut=40 / intra_refresh=0 / rc_lookahead=40 / rc=crf / mbtree=1 / crf=18.0 / qcomp=0.60 / qpmin=10 / qpmax=61 / qpstep=4 / ip_ratio=1.40 / aq=1:1.00
Language                         : English
Audio
ID                               : 2
Format                           : AC-3
Format/Info                      : Audio Coding 3
Mode extension                   : CM (complete main)
Codec ID                         : A_AC3
Duration                         : 3mn 58s
Bit rate mode                    : Constant
Bit rate                         : 320 Kbps
Channel(s)                       : 2 channels
Channel positions                : Front: L R
Sampling rate                    : 44.1 KHz
Bit depth                        : 16 bits
Compression mode                 : Lossy
Stream size                      : 9.10 MiB (3%)
Language                         : English

Скриншоты

Благодарности релизеру (0)

Торрент:

Статус:

Размер:

Зарегистрирован   [ 2011-11-03 13:14 ]

проверено

543 MB