Торренты   
 
 

 

Трон: Наследие / TRON: Legacy (Джозеф Косински) [2010 г., Anamorph OverUnder]

Рейтинг 3D:
79 голосов
7.1
Рейтинг фильма:
72 голосов
7.1
 
Вы должны быть авторизированы,
чтобы ставить оценки


Трон: Наследие / TRON: Legacy
Год выпуска: 2010
Страна: США
Жанр: фантастика, боевик, триллер, приключения
Продолжительность: 02:05:08
Перевод: Профессиональный (полное дублирование)
Режиссер: Джозеф Косински
В ролях: Джефф Бриджес, Гаррет Хедлунд, Оливия Уайлд, Брюс Бокслейтнер, Джеймс Фрейн, Бо Гарретт, Майкл Шин, Серинда Свон, Йайа ДаКоста, Элизабет Мэтис
Описание: Сэм Флинн, технически одарённый 27-летний сын Кевина Флинна, начинает расследовать исчезновение своего отца и оказывается втянутым в тот же мир жестоких программ и гладиаторских игр, в котором его отец жил на протяжении 20 лет. Вместе с помощницей Кевина отец и сын пускаются в рискованное путешествие за жизнью по поражающей взгляд кибер-вселенной, которая стала ещё более совершенной и чрезвычайно опасной...
Доп. информация:
Качество: BD3DRip
Контейнер: MKV
Формат 3d: Anamorph OverUnder
Видео: MPEG4 Video (H264) 1920x1080 23,976 fps 15,6 Мбит/сек
Аудио: Russian 5.1 Dolby AC3 48000Hz 640kbps
Лучшее "спасибо" - скачать сэмпл...

Скриншоты



Gif анимация

МИ

Общее
Уникальный идентификатор : 207211372267252652283358598489427630226 (0x9BE3756B2E6B7FF88B7F64FD9A5F5892)
Полное имя : Трон Наследие_half_OU.mkv
Формат : Matroska
Размер файла : 14,5 Гбайт
Продолжительность : 2 ч. 5 м.
Общий поток : 16,6 Мбит/сек
Дата кодирования : UTC 2011-11-01 17:12:26
Программа кодирования : mkvmerge v4.3.0 ('Escape from the Island') сборка от Sep 5 2010 10:30:51
Библиотека кодирования : libebml v1.0.0 + libmatroska v1.0.0
Видео
Идентификатор : 1
Формат : AVC
Формат/Информация : Advanced Video Codec
Профиль формата : High@L4.0
Параметр CABAC формата : Да
Параметр ReFrames формата : 4 кадры
Идентификатор кодека : V_MPEG4/ISO/AVC
Продолжительность : 2 ч. 5 м.
Битрейт : 15,6 Мбит/сек
Ширина : 1920 пикс.
Высота : 1080 пикс.
Соотношение сторон : 16:9
Частота кадров : 23,976 кадр/сек
Цветовое пространство : YUV
Подвыборка цветности : 4:2:0
Битовая глубина : 8 бит
Тип развёртки : Прогрессивная
Бит/(Пиксели*Кадры) : 0.314
Размер потока : 13,7 Гбайт (94%)
Библиотека кодирования : x264 core 116 r2074 2641b9e
Настройки программы : cabac=1 / ref=4 / deblock=1:-3:-3 / analyse=0x3:0x133 / me=umh / subme=10 / psy=1 / psy_rd=1.00:0.10 / mixed_ref=1 / me_range=16 / chroma_me=1 / trellis=2 / 8x8dct=1 / cqm=0 / deadzone=21,11 / fast_pskip=0 / chroma_qp_offset=-3 / threads=6 / sliced_threads=0 / nr=0 / decimate=1 / interlaced=0 / bluray_compat=0 / constrained_intra=0 / bframes=7 / b_pyramid=2 / b_adapt=2 / b_bias=0 / direct=3 / weightb=1 / open_gop=0 / weightp=2 / keyint=250 / keyint_min=23 / scenecut=40 / intra_refresh=0 / rc_lookahead=40 / rc=crf / mbtree=1 / crf=18.0 / qcomp=0.70 / qpmin=10 / qpmax=69 / qpstep=4 / frame-packing=4 / ip_ratio=1.40 / aq=1:0.90
Аудио
Идентификатор : 2
Формат : AC-3
Формат/Информация : Audio Coding 3
Расширение режима : CM (complete main)
Идентификатор кодека : A_AC3
Продолжительность : 2 ч. 5 м.
Вид битрейта : Постоянный
Битрейт : 640 Кбит/сек
Канал(ы) : 6 канала(ов)
Расположение каналов : Front: L C R, Side: L R, LFE
Частота : 48,0 КГц
Битовая глубина : 16 бит
Метод сжатия : С потерями
Размер потока : 573 Мбайт (4%)
Меню
00:00:00.000 : :00:00:00.000
00:04:07.164 : :00:04:07.164
00:14:44.133 : :00:14:44.133
00:23:15.603 : :00:23:15.603
00:26:52.694 : :00:26:52.694
00:36:12.212 : :00:36:12.212
00:38:35.980 : :00:38:35.980
00:46:52.727 : :00:46:52.727
00:53:03.764 : :00:53:03.764
01:04:54.182 : :01:04:54.182
01:13:47.423 : :01:13:47.423
01:19:00.945 : :01:19:00.945
01:22:40.455 : :01:22:40.455
01:25:50.896 : :01:25:50.896
01:28:11.828 : :01:28:11.828
01:31:42.414 : :01:31:42.414
01:43:13.062 : :01:43:13.062
01:48:18.033 : :01:48:18.033
01:54:48.381 : :01:54:48.381
01:58:03.660 : :01:58:03.660
Внимание! У кого на ТВ не показывает, не прет, не воспроизводит, не кажет, итд... прогоняем через MKVmergeGUI используя за основу эту инструкцию - MKVmergeGUI (инструкция по основным операциям редактирования) - Если не помогает, удаляем главы по этой же инструкции!
Остальные раздачи этого фильма (7)
Благодарности релизеру (1)

Торрент:

Статус:

Размер:

Зарегистрирован   [ 2012-05-06 21:14 ]

проверено

14.51 GB

 
 Мнение о фильме (17)





это фантастика! лучше не видел фильма в 3D! спасибо!!
 

Давно хотел посмотреть этот фильм а когда посмотрел пожалел.
 

ХЕРНЯ ПОЛНАЯ! ОБЫЧНЫЙ 2Д ФИЛЬМ С 3Д сценами. Самый лучший фильм в 3Д полноценном который тут есть это санлентхил 2 вот там реально тема!
 

Фильм сделан классно,но сюжет мог бы быть интереснее
 

Фильм среднячок, а 3D хорошее :)
 

нормально. ожидал, конечно большего.
 

Смотрел в кинотеатре в IMAX, пересмотрел дома нормальный фильм
 

Хоспади, какие же дебилы тут каменты оставляют....
 

Фильм просто супер, а также великолепное 3D! Лучший саундтрек, который я встречал в кинематографе. Буйство стиля и дизайна!
 

3D ниочем, а фильм хороший
 

И где тут 3D? долго искал и не нашел.
 

Фильм норма 3d тоже спасибо!
 

раздаю
 

Ребятушки, ну раздайте! 3 Гб уже неделю вытянуть не могу!
 

вернитесь на раздачу,пожалуйста!!
 

супер
 

все много как по качеству и звуку смотреть можно?