Торренты   
 
 

 

Как приручить дракона 3Д / How to Train Your Dragon 3D (Дин ДеБлуа /Dean DeBlois/, Крис Сандерс /Chris Sanders) [2010 г. OU, 720p, 60FPS]

Рейтинг 3D:
151 голосов
8.7
Рейтинг фильма:
156 голосов
9.0
 
Вы должны быть авторизированы,
чтобы ставить оценки


Как приручить дракона 3Д / How to Train Your Dragon 3D
Год выпуска: 2010
Страна: США
Жанр: комедийные скандинавско-фентезийные приключения
Продолжительность: 01:37:52
Перевод: Профессиональный (полное дублирование)
Режиссер: Дин ДеБлуа /Dean DeBlois/, Крис Сандерс /Chris Sanders/
В ролях: Джей Барушель /Jay Baruchel/, Джерард Батлер /Gerard Butler/, Крэйг Фергюсон /Craig Ferguson/, Америка Феррера /America Ferrera/, Джона Хилл /Jonah Hill/, Кристофер Минц-Плассе /Christopher Mintz-Plasse/, ТиДжей Миллер /T.J. Miller/, Кристен Уиг /Kristen Wiig/, Робин Аткин Даунс /Robin Atkin Downes/, Филип МакГрэйд /Philip McGrade/
Описание: Вы узнаете историю подростка Иккинга, которому не слишком близки традиции его героического племени, много лет ведущего войну с драконами. Мир Иккинга переворачивается с ног на голову, когда он неожиданно встречает дракона Беззубика, который поможет ему и другим викингам увидеть привычный мир с совершенно другой стороны…
Доп. информация: За предоставленный рип спасибо Eugeniy, stranger140480.
Это конверт этого релиза в 60fps.

Скриншоты



медиаинфо

Общее
Уникальный идентификатор : 216103921866910523382679849878854278127 (0xA29419F6CFD6ADC0B279FC2FD7CB9BEF)
Полное имя : D:\3D\Rips 60 fps\How to Train Your Dragon.3d.720p 60FPS.mkv
Формат : Matroska
Версия формата : Version 2
Размер файла : 7,19 Гбайт
Продолжительность : 1 ч. 37 м.
Общий поток : 10,5 Мбит/сек
Дата кодирования : UTC 2011-11-06 11:54:08
Программа кодирования : mkvmerge v4.6.0 ('Still Crazy After All These Years') сборка от Mar 10 2011 02:50:32
Библиотека кодирования : libebml v1.2.0 + libmatroska v1.1.0
Видео
Идентификатор : 1
Формат : AVC
Формат/Информация : Advanced Video Codec
Профиль формата : High@L5.0
Параметр CABAC формата : Да
Параметр ReFrames формата : 8 кадров
Идентификатор кодека : V_MPEG4/ISO/AVC
Продолжительность : 1 ч. 37 м.
Битрейт : 9015 Кбит/сек
Ширина : 1280 пикселей
Высота : 1088 пикселей
Соотношение сторон : 1,176
Частота кадров : 59,940 кадров/сек
Цветовое пространство : YUV
Субдискретизация насыщенности : 4:2:0
Битовая глубина : 8 бит
Тип развёртки : Прогрессивная
Бит/(Пиксели*Кадры) : 0.108
Размер потока : 6,17 Гбайт (86%)
Библиотека кодирования : x264 core 116 r2057 0ba8a9c
Настройки программы : cabac=1 / ref=8 / deblock=1:-3:-3 / analyse=0x3:0x113 / me=umh / subme=9 / psy=1 / psy_rd=1.00:0.15 / mixed_ref=1 / me_range=16 / chroma_me=1 / trellis=2 / 8x8dct=1 / cqm=0 / deadzone=21,11 / fast_pskip=1 / chroma_qp_offset=-3 / threads=12 / sliced_threads=0 / nr=0 / decimate=1 / interlaced=0 / bluray_compat=0 / constrained_intra=0 / bframes=6 / b_pyramid=2 / b_adapt=2 / b_bias=0 / direct=3 / weightb=1 / open_gop=0 / weightp=2 / keyint=250 / keyint_min=25 / scenecut=40 / intra_refresh=0 / rc_lookahead=60 / rc=crf / mbtree=1 / crf=18.0 / qcomp=0.70 / qpmin=0 / qpmax=69 / qpstep=4 / ip_ratio=1.40 / aq=1:1.00
Аудио #1
Идентификатор : 2
Формат : AC-3
Формат/Информация : Audio Coding 3
Расширение режима : CM (complete main)
Идентификатор кодека : A_AC3
Продолжительность : 1 ч. 37 м.
Вид битрейта : Постоянный
Битрейт : 640 Кбит/сек
Каналы : 6 каналов
Расположение каналов : Front: L C R, Side: L R, LFE
Частота : 48,0 КГц
Битовая глубина : 16 бит
Метод сжатия : С потерями
Размер потока : 449 Мбайт (6%)
Язык : Russian
Аудио #2
Идентификатор : 3
Формат : AC-3
Формат/Информация : Audio Coding 3
Расширение режима : CM (complete main)
Идентификатор кодека : A_AC3
Продолжительность : 1 ч. 37 м.
Вид битрейта : Постоянный
Битрейт : 640 Кбит/сек
Каналы : 6 каналов
Расположение каналов : Front: L C R, Side: L R, LFE
Частота : 48,0 КГц
Битовая глубина : 16 бит
Метод сжатия : С потерями
Задержка видео : 24 мс.
Размер потока : 449 Мбайт (6%)
Язык : English
Меню
00:00:00.000 : en:00:00:00.000
00:08:39.811 : en:00:08:39.811
00:11:31.983 : en:00:11:31.983
00:15:11.035 : en:00:15:11.035
00:21:57.107 : en:00:21:57.107
00:27:41.702 : en:00:27:41.702
00:33:14.201 : en:00:33:14.201
00:39:07.136 : en:00:39:07.136
00:43:28.731 : en:00:43:28.731
00:47:08.367 : en:00:47:08.367
00:49:47.193 : en:00:49:47.193
00:59:55.801 : en:00:59:55.801
01:04:47.383 : en:01:04:47.383
01:09:28.164 : en:01:09:28.164
01:12:38.187 : en:01:12:38.187
01:23:26.043 : en:01:23:26.043
01:28:54.496 : en:01:28:54.496
Остальные раздачи этого фильма (8)
Благодарности релизеру (2)

Торрент:

Статус:

Размер:

Зарегистрирован   [ 2011-11-06 16:24 ]

проверено

7.19 GB

 
 Мнение о фильме (46)

1, 2, 3  След.






3Д эффекты на высоте спасибо
 

Ржака мульт ))) Спасибо
 

Спасибо! Мой первый фильм, посмотренный в 3D. Восторг!
 

Спасибо за рип)) Мульт убойный, а в 3D еще лучше)
 

а в 3D еще лучше)
Не зря же он получил премию Веницианского кинофестиваля, как лучший 3D фильм!
И кстати, один из немногих редких фильмов, в котором стереоскопия эффективно используется не просто как примитивный развлекательный атракцион, но и как художественное изобразительное средство, подчеркивающее сюжет и эмоциональное восприятие сцены зрителем.
 

Посмотрели мултьт,класный понравился всем,я редко смотрю но этот посмотрю еще раз,спасибо
 

Суперский!
 

Мульт отличный ! Спасибо.
 

В конце без ноги остался!
 

Люблю мульты.Уже смотрел,но пересмотрю ещё и в 3D
 

Классный, семейный мультфильм. Посмотрите обязательно, кто это еще не сделал
 

Хороший фильм. Спасибо.
 

Очень хороший, поучительный мультфильм! Благодарю!
 

Классный мульт! 3д оч. даже ни чего. СПС
 

мультик супер 3д зачет
 

спасибо
 

Смотрел в 2D, теперь заценю в 3D. Спасибо ash61.
 

Хороший мульт, посмотрел с удовольствием. Качество 3D - отличное! Спасибо автору раздачи!
 

Бесподобный мульт! Качество отличное!
 

Мульт превосходный.3D превосходное.CПАСИБО.
 

Страница 1 из 3

1, 2, 3  След.