Торренты   
 
 

 

Дети шпионов 4 / Spy Kids - All the Time in the World 3D (Роберт Родригес) [2011 г., Anamorph SideBySide]

Рейтинг 3D:
2 голосов
9.0
Рейтинг фильма:
2 голосов
7.0
 
Вы должны быть авторизированы,
чтобы ставить оценки


Дети шпионов 4 / Spy Kids - All the Time in the World 3D
Год выпуска: 2011
Страна: США, Dimension Films
Жанр: фантастика, боевик, комедия, приключения, семейный
Продолжительность: 01:27:44
Перевод: Профессиональный (полное дублирование)
Режиссер: Роберт Родригес
В ролях: Джессика Альба, Дэнни Трехо, Джоэль МакХэйл, Алекса Вега, Дэрил Сабара, Роуэн Бланчард, Мэйсон Кук, Джереми Пивен, Белль Солорзано, Дженни Солорзано
Описание: Брат и сестра поневоле должны стать крутыми шпионами, чтобы помешать мечтающему о мировом господстве злодею, и выручить из беды собственных родителей, удалившихся на покой секретных суперагентов.

MI

General
Unique ID : 168348648403719580577546155723716462494 (0x7EA6C532C2870C1E037BA147C20E879E)
Complete name : C:\Users\igor\Videos\SPYKIDS 4 in 3D.mkv
Format : Matroska
Format version : Version 2
File size : 7.63 GiB
Duration : 1h 27mn
Overall bit rate : 12.5 Mbps
Writing application : Lavf51.12.1
Writing library : Lavf51.12.1
Video
ID : 1
Format : AVC
Format/Info : Advanced Video Codec
Format profile : Baseline@L1.3
Format settings, CABAC : No
Format settings, ReFrames : 1 frame
Format settings, GOP : M=1, N=12
Codec ID : V_MPEG4/ISO/AVC
Duration : 1h 27mn
Bit rate : 12.1 Mbps
Width : 1 920 pixels
Height : 1 080 pixels
Display aspect ratio : 16:9
Frame rate : 47.952 fps
Color space : YUV
Chroma subsampling : 4:2:0
Bit depth : 8 bits
Scan type : Progressive
Bits/(Pixel*Frame) : 0.121
Stream size : 7.40 GiB (97%)
Language : Russian
Audio
ID : 2
Format : AC-3
Format/Info : Audio Coding 3
Mode extension : CM (complete main)
Codec ID : A_AC3
Duration : 1h 27mn
Bit rate mode : Constant
Bit rate : 128 Kbps
Channel(s) : 2 channels
Channel positions : Front: L R
Sampling rate : 44.1 KHz
Bit depth : 16 bits
Compression mode : Lossy
Stream size : 80.3 MiB (1%)
Language : Russian
Формат 3d: Anamorph SideBySide
Порядок ракурсов: Параллельная пара

Скриншоты




Благодарности релизеру (0)

Торрент:

Статус:

Размер:

Зарегистрирован   [ 2011-11-06 21:49 ]

x закрыто

7.63 GB

 
Комментарии:

1, 2  След.






Проверено на встроенном плеере LG42LW575S
 

Во молодчина,огромное спасибо !!!
 

сПАСИБА!!!
 

Спасибо!!!
 

avacha
Медиаинфо под спойлер, пожалуйста.
 

avacha
Медиаинфо под спойлер, пожалуйста.
Подскажите пожалуйста как?
Не могу разобраться
 

Убрал. Зайдите в изменить и посмотрите как. Кнопка спойлер сверху, чтоб текст вставить надо добавить[spoiler ="нужный текст"]
 

Убрал. Зайдите в изменить и посмотрите как. Кнопка спойлер сверху, чтоб текст вставить надо добавить[spoiler ="нужный текст"]
Спасибо, по-моему понял
 

3д здесь как? Конвертация? Без вылетов?
 

Привет из Казахстана.
Долгожданный подарок, сын 3 фильм пересмотрел раза 3 - 4, так что 4 в 3D будит для него просто шик.
Спасибо.
 

А почему звук 2-х канальный?
 

Спасибо!Щя глянем этот шедевр!!! =)
 

Спасибо.
 

Огромное спасибо, если не трудно хоть ссылку на дорожку Dolby Digital 5.1.
 

Огромное спасибо, если не трудно хоть ссылку на дорожку Dolby Digital 5.1.
http://rutracker.org/forum/viewtopic.php?t=3806067
 

Конвертация напоминает " Битва титанов".
 

спасибо!!!
 

Конвертация напоминает " Битва титанов".
спасибо
 

3D вообщем хреновое?
 

Спасибо!
 

Страница 1 из 2

1, 2  След.