Торренты   
 
 

 

Дети шпионов 4 / Spy Kids - All the Time in the World 3D (Роберт Родригес) [2011 г., Anamorph SideBySide]

Рейтинг 3D:
2 голосов
9.0
Рейтинг фильма:
2 голосов
7.0
 
Вы должны быть авторизированы,
чтобы ставить оценки


Дети шпионов 4 / Spy Kids - All the Time in the World 3D
Год выпуска: 2011
Страна: США, Dimension Films
Жанр: фантастика, боевик, комедия, приключения, семейный
Продолжительность: 01:27:44
Перевод: Профессиональный (полное дублирование)
Режиссер: Роберт Родригес
В ролях: Джессика Альба, Дэнни Трехо, Джоэль МакХэйл, Алекса Вега, Дэрил Сабара, Роуэн Бланчард, Мэйсон Кук, Джереми Пивен, Белль Солорзано, Дженни Солорзано
Описание: Брат и сестра поневоле должны стать крутыми шпионами, чтобы помешать мечтающему о мировом господстве злодею, и выручить из беды собственных родителей, удалившихся на покой секретных суперагентов.

MI

General
Unique ID : 168348648403719580577546155723716462494 (0x7EA6C532C2870C1E037BA147C20E879E)
Complete name : C:\Users\igor\Videos\SPYKIDS 4 in 3D.mkv
Format : Matroska
Format version : Version 2
File size : 7.63 GiB
Duration : 1h 27mn
Overall bit rate : 12.5 Mbps
Writing application : Lavf51.12.1
Writing library : Lavf51.12.1
Video
ID : 1
Format : AVC
Format/Info : Advanced Video Codec
Format profile : Baseline@L1.3
Format settings, CABAC : No
Format settings, ReFrames : 1 frame
Format settings, GOP : M=1, N=12
Codec ID : V_MPEG4/ISO/AVC
Duration : 1h 27mn
Bit rate : 12.1 Mbps
Width : 1 920 pixels
Height : 1 080 pixels
Display aspect ratio : 16:9
Frame rate : 47.952 fps
Color space : YUV
Chroma subsampling : 4:2:0
Bit depth : 8 bits
Scan type : Progressive
Bits/(Pixel*Frame) : 0.121
Stream size : 7.40 GiB (97%)
Language : Russian
Audio
ID : 2
Format : AC-3
Format/Info : Audio Coding 3
Mode extension : CM (complete main)
Codec ID : A_AC3
Duration : 1h 27mn
Bit rate mode : Constant
Bit rate : 128 Kbps
Channel(s) : 2 channels
Channel positions : Front: L R
Sampling rate : 44.1 KHz
Bit depth : 16 bits
Compression mode : Lossy
Stream size : 80.3 MiB (1%)
Language : Russian
Формат 3d: Anamorph SideBySide
Порядок ракурсов: Параллельная пара

Скриншоты




Благодарности релизеру (0)

Торрент:

Статус:

Размер:

Зарегистрирован   [ 2011-11-06 21:49 ]

x закрыто

7.63 GB

 
Комментарии:

Пред.  1, 2






Спасибо за новый релиз!
 

На С 7000 не показывает, пишет "не поддерживаемый видеокодек".
 

vasilij - "Frame rate : 47.952 fps"
 

Есть ли 3д эффекты
 

на встроенном плэере тоже не фурычит, говорит "не подерживаемый формат" Телек LG LW4500
 

неужели нельзя сделать .mkv, H264 и дорожку AC3 и с разрешение 1920х1080, и у всех будет читать без проблем!
За старания тебе канечно спасибо)
 

на встроенном плэере тоже не фурычит, говорит "не подерживаемый формат" Телек LG LW4500
Скорее всего надо обновить ПО. LW573S-ZG показывает без проблем.
 

Спасибо, уже перекодировал.
 

ash61
А твой релиз когда ждать?
 

Спасибо, уже перекодировал.
Судя по тому что тут Ash61 сказал спасибо ждем скоро его релиз :)
 

Помнится мне МОДЕРАТОРЫ писали что сайт изначально задумывался только для чистого 3D,а я так погляжу и конвертиками не брезгуем,да?)))
 

kanasyvrik
конвертик - конвертику рознь.
 

Нужно ссоздать отдельную ветку для конвертиков !!!
 

kanasyvrik
Студийная конвертация и конвертация однокликовой программой, вещи далекие друг от друга. Если первое это труд целой команды с использованием карт глубин и пр. (причем компьютерный рендер в спецэффектах изначально в честном стерео, потому как пишется на две виртуальные камеры) , то второе это фейк, не имеющий к стерео никакого отношения.
 

на встроенном плэере тоже не фурычит, говорит "не подерживаемый формат" Телек LG LW4500
Скорее всего надо обновить ПО. LW573S-ZG показывает без проблем.
все обнавлено по последниму слову) не понамаю в чем прикол :(
 

Помнится мне МОДЕРАТОРЫ писали что сайт изначально задумывался только для чистого 3D,а я так погляжу и конвертиками не брезгуем,да?)))
Ну тогда пол трекера надо удалять:) В последнее время вообще одни сплошные конверты. Скажите хоть один последний фильм (не мульт) в честном 3Д? Давно не смотрю из-за этого, скачаешь, глянешь и ни в 3Д не хочется и не в 2Д из-за слабого сюжета:) (ворчание: -Вот раньше были деревья выше, а 3Д глубже! :) )
Особо обидно что это тот же Родригес который с "Д. Шпионами 3" произвел в своё время 3Д бум схожий с Аватаром, но в анаглифе, поднял волну увлечения стерео, и я из-за этих очков оставшихся из кинотеатра начал увлекаться стереофото . И всё стерео ассоциировалось с "Дети шпионов 3", потому как другого не было, старые наши "Стерео 70" уже забыли а новых не было. А тут, на тебе, хавай пипл фейкус-обыкновенус-конверсионалез.
Автоконвер и сделанный своими руками всё же ближе к фейку, такое запрещено, а с всеобще раскручченным ни чего не поделаешь, придется терпеть или отдельный раздел где половина раздач трекера будет:) В списке Фейк/Реал 3Д почти 50/50% :)
 

kanasyvrik
Все студийные конверты здесь всегда были, а фейки удалялись. Всё верно!
 

Поглощено - http://torrents3d.ru/viewtopic.php?t=2102. Закрыто.
 

Топик был перенесен из форума Фильмы в форум Архив

KinoKRITIK
 

Страница 2 из 2

Пред.  1, 2