Торренты   
 
 


Призраки Салема 3D / A Haunting in Salem 3D (Шэйн Ван Дайк) [2011 г., Anamorph SideBySide]

Рейтинг 3D:
Пока никто не голосовал
Рейтинг фильма:
Пока никто не голосовал
 
Вы должны быть авторизированы,
чтобы ставить оценки


Призраки Салема 3D / A Haunting in Salem 3D
Год выпуска: 2011
Страна: США
Жанр: ужасы, мистика
Продолжительность: 1ч. 26 мин.
Перевод: Любительский (одноголосый)
Режиссер: Шэйн Ван Дайк
В ролях: Кортни Аббьяти, Эшли Баррон,Сонни Кинг, Билл Оберст мл, Джошуа Роман, Дженна Стоун, Кэри Ван Дайк, Джералд Уэбб
Описание: Когда новый шериф штата Массачусетс Салем обнаруживает, что он является жертвой многовекового проклятья, он встает на защиту своей семьи от мстительных призраков, которые теперь преследуют его.

MI

General
Unique ID : 168348648403719580577546155723716462494 (0x7EA6C532C2870C1E037BA147C20E879E)
Complete name : C:\Users\igor\Videos\A_Haunting_in_Salem 3D.mkv
Format : Matroska
Format version : Version 2
File size : 6.11 GiB
Duration : 1h 25mn
Overall bit rate : 10.2 Mbps
Writing application : Lavf51.12.1
Writing library : Lavf51.12.1
Video
ID : 1
Format : AVC
Format/Info : Advanced Video Codec
Format profile : Baseline@L1.3
Format settings, CABAC : No
Format settings, ReFrames : 1 frame
Format settings, GOP : M=1, N=12
Codec ID : V_MPEG4/ISO/AVC
Duration : 1h 25mn
Bit rate : 9 879 Kbps
Width : 1 920 pixels
Height : 1 080 pixels
Display aspect ratio : 16:9
Frame rate : 47.952 fps
Color space : YUV
Chroma subsampling : 4:2:0
Bit depth : 8 bits
Scan type : Progressive
Bits/(Pixel*Frame) : 0.099
Stream size : 5.91 GiB (97%)
Language : Russian
Audio
ID : 2
Format : AC-3
Format/Info : Audio Coding 3
Mode extension : CM (complete main)
Codec ID : A_AC3
Duration : 1h 25mn
Bit rate mode : Constant
Bit rate : 128 Kbps
Channel(s) : 2 channels
Channel positions : Front: L R
Sampling rate : 44.1 KHz
Bit depth : 16 bits
Compression mode : Lossy
Stream size : 78.5 MiB (1%)
Language : Russian
Формат 3d: Anamorph SideBySide
Порядок ракурсов: Параллельная пара

Скриншоты



Благодарности релизеру (0)

Торрент:

Статус:

Размер:

Зарегистрирован   [ 2011-11-07 00:04 ]

* не проверено

6.11 GB