Торренты   
 
 


Смурфики / The Smurfs (Раджа Госнелл) [2011 г., BDRip 1080p, Full OverUnder]

Рейтинг 3D:
14 голосов
6.8
Рейтинг фильма:
13 голосов
6.7
 
Вы должны быть авторизированы,
чтобы ставить оценки


Смурфики / The Smurfs
Год выпуска: 2011
Страна: США
Жанр: Фэнтези, Комедия, Приключения, Семейный
Продолжительность: 01:42:43
Перевод: Профессиональный (полное дублирование)
Режиссер: Раджа Госнелл
В ролях: Том Кэйн, Джонатан Уинтерс, Алан Камминг, Кэти Перри, Фред Армизен, Джордж Лопез, Антон Ельчин
Армен Джигарханян, Станислав Концевич, Александр Майоров, Наталья Виноградова, Светлана Кузнецова, Сергей Паршин, Борис Хасанов, Анна Шурочкина (Нюша), Александр Новиков, Станислав Никольский, Евгений Березкин, Виктор Костецкий
Описание: По сюжету, спасаясь от злого волшебника Гаргамеля, крошечные смурфики оказываются за пределами родной деревни. Из своего волшебного мира они попадают прямиком в наш мир, а именно в Центральный парк города Нью-Йорк. Теперь маленьким отважным смурфикам предстоит отыскать дорогу домой и не попасть в лапы Гаргамеля.

Формат 3d: OverUnder
Видео: AVC, h264, 1920х2160 , 23,976 кадр/сек, 26,0 Мбит/сек
Аудио: Rus, AC-3, 6 каналов, 640 Кбит/сек, 48,0 КГц
Аудио: Ukr, AC-3, 6 каналов, 640 Кбит/сек, 48,0 КГц
Аудио: Eng, AC-3, 6 каналов, 640 Кбит/сек, 48,0 КГц

Скриншоты



mi

Общее
Полное имя : The Smurfs 1080p.mkv
Формат : Matroska
Размер файла : 20,4 Гбайт
Продолжительность : 1 ч. 42 м.
Общий поток : 28,5 Мбит/сек
Дата кодирования : UTC 2011-11-07 17:16:55
Программа кодирования : mkvmerge v3.4.0 ('Rapunzel') сборка от May 15 2010 09:38:20
Библиотека кодирования : libebml v0.8.0 + libmatroska v0.9.0
Видео
Идентификатор : 1
Формат : AVC
Формат/Информация : Advanced Video Codec
Профиль формата : High@L5.0
Параметр CABAC формата : Да
Параметр ReFrames формата : 4 кадры
Идентификатор кодека : V_MPEG4/ISO/AVC
Продолжительность : 1 ч. 42 м.
Битрейт : 26,0 Мбит/сек
Ширина : 1920 пикс.
Высота : 2160 пикс.
Соотношение сторон : 0,889
Частота кадров : 23,976 кадр/сек
Цветовое пространство : YUV
Подвыборка цветности : 4:2:0
Битовая глубина : 8 бит
Тип развёртки : Прогрессивная
Бит/(Пиксели*Кадры) : 0.261
Размер потока : 18,6 Гбайт (91%)
Библиотека кодирования : x264 core 119 r2106 07efeb4
Настройки программы : cabac=1 / ref=4 / deblock=1:-3:-3 / analyse=0x3:0x113 / me=umh / subme=8 / psy=1 / psy_rd=1.00:0.00 / mixed_ref=1 / me_range=16 / chroma_me=1 / trellis=2 / 8x8dct=1 / cqm=0 / deadzone=21,11 / fast_pskip=1 / chroma_qp_offset=-3 / threads=9 / sliced_threads=0 / nr=0 / decimate=1 / interlaced=0 / bluray_compat=0 / constrained_intra=0 / bframes=6 / b_pyramid=0 / b_adapt=2 / b_bias=0 / direct=3 / weightb=1 / open_gop=0 / weightp=2 / keyint=250 / keyint_min=23 / scenecut=40 / intra_refresh=0 / rc_lookahead=40 / rc=crf / mbtree=1 / crf=18.0 / qcomp=0.60 / qpmin=0 / qpmax=69 / qpstep=4 / ip_ratio=1.40 / aq=1:1.00
Язык : English
Аудио #1
Идентификатор : 2
Формат : AC-3
Формат/Информация : Audio Coding 3
Расширение режима : CM (complete main)
Идентификатор кодека : A_AC3
Продолжительность : 1 ч. 42 м.
Вид битрейта : Постоянный
Битрейт : 640 Кбит/сек
Канал(ы) : 6 канала(ов)
Расположение каналов : Front: L C R, Side: L R, LFE
Частота : 48,0 КГц
Битовая глубина : 16 бит
Метод сжатия : С потерями
Размер потока : 470 Мбайт (2%)
Язык : Russian
Аудио #2
Идентификатор : 3
Формат : AC-3
Формат/Информация : Audio Coding 3
Расширение режима : CM (complete main)
Идентификатор кодека : A_AC3
Продолжительность : 1 ч. 42 м.
Вид битрейта : Постоянный
Битрейт : 640 Кбит/сек
Канал(ы) : 6 канала(ов)
Расположение каналов : Front: L C R, Side: L R, LFE
Частота : 48,0 КГц
Битовая глубина : 16 бит
Метод сжатия : С потерями
Размер потока : 470 Мбайт (2%)
Язык : Ukrainian
Аудио #3
Идентификатор : 4
Формат : AC-3
Формат/Информация : Audio Coding 3
Расширение режима : CM (complete main)
Идентификатор кодека : A_AC3
Продолжительность : 1 ч. 42 м.
Вид битрейта : Постоянный
Битрейт : 640 Кбит/сек
Канал(ы) : 6 канала(ов)
Расположение каналов : Front: L C R, Side: L R, LFE
Частота : 48,0 КГц
Битовая глубина : 16 бит
Метод сжатия : С потерями
Размер потока : 470 Мбайт (2%)
Язык : English
Скриншоты сравнения
Остальные раздачи этого фильма (5)
Благодарности релизеру (4)

Торрент:

Статус:

Размер:

Зарегистрирован   [ 2011-11-07 21:40 ]

проверено

20.42 GB