Торренты   
 
 

 

Future circus 3D/Цирк будущего в 3D [2011 г., Anamorph SideBySide]

Рейтинг 3D:
6 голосов
8.2
Рейтинг фильма:
6 голосов
7.2
 
Вы должны быть авторизированы,
чтобы ставить оценки


Future circus 3D/Цирк будущего в 3D
Год выпуска: 2011
Страна: США
Жанр: семейный (детский)
Продолжительность: 11 мин.
Перевод: нет
Описание: Компьютерный ролик для детей о цирке "будущего"с хорошей глубиной и выходом 3D

MI

General
Unique ID : 168348648403719580577546155723716462494 (0x7EA6C532C2870C1E037BA147C20E879E)
Complete name : C:\Documents and Settings\Администратор\My Documents\My Videos\Future Circus 3D.mkv
Format : Matroska
Format version : Version 2
File size : 1.04 GiB
Duration : 11mn 19s
Overall bit rate : 13.1 Mbps
Writing application : Lavf51.12.1
Writing library : Lavf51.12.1
Video
ID : 1
Format : AVC
Format/Info : Advanced Video Codec
Format profile : Baseline@L1.3
Format settings, CABAC : No
Format settings, ReFrames : 1 frame
Format settings, GOP : M=1, N=12
Codec ID : V_MPEG4/ISO/AVC
Duration : 11mn 19s
Bit rate : 12.7 Mbps
Width : 1 280 pixels
Height : 720 pixels
Display aspect ratio : 16:9
Frame rate : 23.976 fps
Color space : YUV
Chroma subsampling : 4:2:0
Bit depth : 8 bits
Scan type : Progressive
Bits/(Pixel*Frame) : 0.577
Stream size : 1.01 GiB (97%)
Language : English
Audio
ID : 2
Format : AC-3
Format/Info : Audio Coding 3
Mode extension : CM (complete main)
Codec ID : A_AC3
Duration : 11mn 19s
Bit rate mode : Constant
Bit rate : 128 Kbps
Channel(s) : 2 channels
Channel positions : Front: L R
Sampling rate : 44.1 KHz
Bit depth : 16 bits
Compression mode : Lossy
Delay relative to video : 13ms
Stream size : 10.4 MiB (1%)
Language : English
Формат 3d: Anamorph SideBySide
Видео: 1280x720

Скриншоты



Благодарности релизеру (9)

Торрент:

Статус:

Размер:

Зарегистрирован   [ 2011-11-08 18:50 ]

проверено

1.04 GB

 
 Мнение о фильме (9)





На Самсунге идет, "семерка"D, вылеты есть, особенно змеюга когда кусаеть) Благодарствуем!
 

Спасибо,очень понравилось.И качество, и вылеты,всё на ура!!!Lg lw4500
 

Спасибо! Клевый ролик! Очень понравилось!
 

Спасибо! Лучше мультика в 3Д не видели! Очень хорошо сделано!
 

Довольно таки симпатичное 3D не пожалел.
 

3д хорошее а сам мульт бред
 
АНДРЕЙЗ0Л0Т0К Профиль 19-Авг-2013 11:46

Спасибо, лично я готов смотреть любой бред, лишь бы вылеты были!!!!!
 

Встаньте пожалуйста на раздачу...
 

Скорость нулевая( Над чот делать...
 
Солодкий Георгий Профиль 24-Апр-2016 10:51