Торренты   
 
 

 

Шаг вперед 3D / Step Up 3D (Джон М. Чу) [2010 г., Anamorph OverUnder]

Рейтинг 3D:
6 голосов
8.0
Рейтинг фильма:
7 голосов
8.3
 
Вы должны быть авторизированы,
чтобы ставить оценки


Шаг вперед 3D / Step Up 3D
Год выпуска: 2010
Страна: США
Жанр: Мелодрама, Драма, Музыка
Продолжительность: 01:47:09
Перевод: Профессиональный (полное дублирование)
Режиссер: Джон М. Чу
В ролях: Рик Маламбри, Элисон Стоунер, Шарни Винсон, Гарри Шум мл., Адам Дж. Севани, Элли Матсумура, Стивен Стэннерт, Кристофер Скотт, Луис Росадо, Шерил Алессио
Описание: Некоторые учатся танцевать, другие рождены для этого. Люк ищет танцоров для своей команды «Пираты». В конце концов, ему встречаются Лось, поступивший в Нью-Йоркский университет, и Натали, загадочная танцовщица, которая никогда не проигрывает. Смогут ли они превзойти лучших мировых танцоров?
Видео: MPEG4 Video (H264) 1920х1080 23.98fps 21,4 Мбит/сек
Аудио: AC-3, 5.1, 640 Кбит/сек, , 48,0 КГц, 16 бит (Дубляж) Russian
Формат 3d: Anamorph OverUnder

Скриншоты



Gif анимация

МИ

Общее
Уникальный идентификатор : 223416640574849665605720928852128905171 (0xA8147AD5347BC372AAB0DFFDB16D37D3)
Полное имя : JШаг Вперед_half_OU.mkv
Формат : Matroska
Размер файла : 16,8 Гбайт
Продолжительность : 1 ч. 46 м.
Общий поток : 22,5 Мбит/сек
Дата кодирования : UTC 2011-11-08 14:41:56
Программа кодирования : mkvmerge v5.0.0 ('Die Wahre Liebe') built on Sep 25 2011 20:33:49
Библиотека кодирования : libebml v1.2.2 + libmatroska v1.3.0
Видео
Идентификатор : 1
Формат : AVC
Формат/Информация : Advanced Video Codec
Профиль формата : High@L4.0
Параметр CABAC формата : Да
Параметр ReFrames формата : 4 кадры
Идентификатор кодека : V_MPEG4/ISO/AVC
Продолжительность : 1 ч. 46 м.
Битрейт : 21,4 Мбит/сек
Ширина : 1920 пикс.
Высота : 1080 пикс.
Соотношение сторон : 16:9
Частота кадров : 23,976 кадр/сек
Цветовое пространство : YUV
Подвыборка цветности : 4:2:0
Битовая глубина : 8 бит
Тип развёртки : Прогрессивная
Бит/(Пиксели*Кадры) : 0.430
Размер потока : 15,9 Гбайт (95%)
Библиотека кодирования : x264 core 116 r2074 2641b9e
Настройки программы : cabac=1 / ref=4 / deblock=1:-3:-3 / analyse=0x3:0x133 / me=umh / subme=10 / psy=1 / psy_rd=1.00:0.10 / mixed_ref=1 / me_range=16 / chroma_me=1 / trellis=2 / 8x8dct=1 / cqm=0 / deadzone=21,11 / fast_pskip=0 / chroma_qp_offset=-3 / threads=6 / sliced_threads=0 / nr=0 / decimate=1 / interlaced=0 / bluray_compat=0 / constrained_intra=0 / bframes=7 / b_pyramid=2 / b_adapt=2 / b_bias=0 / direct=3 / weightb=1 / open_gop=0 / weightp=2 / keyint=250 / keyint_min=23 / scenecut=40 / intra_refresh=0 / rc_lookahead=40 / rc=crf / mbtree=1 / crf=18.0 / qcomp=0.70 / qpmin=10 / qpmax=69 / qpstep=4 / frame-packing=4 / ip_ratio=1.40 / aq=1:0.90
Аудио
Идентификатор : 2
Формат : AC-3
Формат/Информация : Audio Coding 3
Расширение режима : CM (complete main)
Идентификатор кодека : A_AC3
Продолжительность : 1 ч. 46 м.
Вид битрейта : Постоянный
Битрейт : 640 Кбит/сек
Канал(ы) : 6 канала(ов)
Расположение каналов : Front: L C R, Side: L R, LFE
Частота : 48,0 КГц
Битовая глубина : 16 бит
Метод сжатия : С потерями
Размер потока : 489 Мбайт (3%)
Заголовок : Дубляж
Язык : Russian
Меню
00:00:00.000 : :00:00:00.000
00:04:08.832 : :00:04:08.832
00:09:52.801 : :00:09:52.801
00:15:04.737 : :00:15:04.737
00:20:24.390 : :00:20:24.390
00:25:08.841 : :00:25:08.841
00:32:11.930 : :00:32:11.930
00:36:48.248 : :00:36:48.248
00:41:01.250 : :00:41:01.250
00:45:21.677 : :00:45:21.677
00:50:49.797 : :00:50:49.797
00:56:14.288 : :00:56:14.288
01:01:57.339 : :01:01:57.339
01:06:11.759 : :01:06:11.759
01:12:03.778 : :01:12:03.778
01:16:06.812 : :01:16:06.812
01:21:22.836 : :01:21:22.836
01:28:21.963 : :01:28:21.963
01:32:43.933 : :01:32:43.933
01:36:44.632 : :01:36:44.632
01:39:38.931 : :01:39:38.931
Внимание! У кого на ТВ не показывает, не прет, не воспроизводит, не кажет, итд... прогоняем через MKVmergeGUI используя за основу эту инструкцию - MKVmergeGUI (инструкция по основным операциям редактирования) - Если не помогает, удаляем главы по этой же инструкции!
Благодарности релизеру (5)

Торрент:

Статус:

Размер:

Зарегистрирован   [ 2012-05-06 21:06 ]

проверено

16.76 GB