Торренты   
 
 


Миссия Дарвина / G-Force (Хойт Йетмен / Hoyt Yeatman) [2009 г., SideBySide, Bdrip, 60FPS, 720р]

Миссия Дарвина / G-Force
Год выпуска: 2009
Страна: США (Walt Disney Pictures)
Жанр: Фантастика, Приключения, Комедия, Семейный
Продолжительность: 01:28:15
Перевод: Профессиональный (полное дублирование)
Режиссер: Хойт Йетмен / Hoyt Yeatman
В ролях: Дарвин - (-) / Александр Стефанцов / Sam Rockwell
Хуарес - (-) / Тина Канделаки / Penélope Cruz
Хёрли - (-) / Евгений Стычкин / Jon Favreau
Спеклс - (-) / Григорий Перель / Nicolas Cage
Баки - (-) / Александр Вартанов / Steve Buscemi
Бластер - (-) / Олег Груз / Tracy Morgan
Бен - Zach Galifianakis / Илья Исаев
Сейбр - Bill Nighy / Виктор Костецкий
Кип Киллиэн - Will Arnett / Илья Барабанов
Марси - Kelli Garner / Софья Ануфриева
Агент Картер - Gabriel Casseus
Агент Тригстад - Jack Conley
Описание: «Миссия Дарвина» — это суперкоманда морских свинок, работающих на правительство США. Для выполнения специальных заданий зверьков подготовил один ученый, и теперь они могут проникать в места, недоступные для людей, вооружившись самыми современными технологиями.
В спецподразделение входят: Дарвин — командир отряда, спец по коммуникациям; Хуарес — единственная девушка в команде, спец по боевым искусствам; Бластер — «мускулы» команды. Вместе им предстоит разрушить планы злого гения, мечтающего захватить власть над миром.
Внимание, это конверт 60 FPS
Формат 3d: SideBySide
Порядок ракурсов: Параллельная пара
Видео: http://depositfiles.com/files/lunnlubwm

Скриншоты

МИ

Общее
Уникальный идентификатор : 227717180034080899301606020628810568867 (0xAB50BBCC6ABF1F2AA2FF74E5CF4414A3)
Полное имя : D:\3D\Rips 60 fps\G-Force-3D.2011.SBS.60fps.720p.AC3rus.mkv
Формат : Matroska
Версия формата : Version 2
Размер файла : 7,03 Гбайт
Продолжительность : 1 ч. 28 м.
Общий поток : 11,4 Мбит/сек
Дата кодирования : UTC 2011-11-09 09:14:05
Программа кодирования : mkvmerge v4.6.0 ('Still Crazy After All These Years') сборка от Mar 10 2011 02:50:32
Библиотека кодирования : libebml v1.2.0 + libmatroska v1.1.0
Видео
Идентификатор : 2
Формат : AVC
Формат/Информация : Advanced Video Codec
Профиль формата : High@L5.0
Параметр CABAC формата : Да
Параметр ReFrames формата : 5 кадров
Идентификатор кодека : V_MPEG4/ISO/AVC
Продолжительность : 1 ч. 28 м.
Битрейт : 10,5 Мбит/сек
Ширина : 2560 пикселей
Высота : 720 пикселей
Соотношение сторон : 3,556
Частота кадров : 59,940 кадров/сек
Цветовое пространство : YUV
Субдискретизация насыщенности : 4:2:0
Битовая глубина : 8 бит
Тип развёртки : Прогрессивная
Бит/(Пиксели*Кадры) : 0.095
Размер потока : 6,49 Гбайт (92%)
Библиотека кодирования : x264 core 116 r2074 2641b9e
Настройки программы : cabac=1 / ref=5 / deblock=1:-3:-3 / analyse=0x3:0x113 / me=umh / subme=9 / psy=1 / psy_rd=1.00:0.15 / mixed_ref=1 / me_range=16 / chroma_me=1 / trellis=2 / 8x8dct=1 / cqm=0 / deadzone=21,11 / fast_pskip=1 / chroma_qp_offset=-3 / threads=12 / sliced_threads=0 / nr=0 / decimate=1 / interlaced=0 / bluray_compat=0 / constrained_intra=0 / bframes=6 / b_pyramid=2 / b_adapt=2 / b_bias=0 / direct=3 / weightb=1 / open_gop=0 / weightp=2 / keyint=250 / keyint_min=25 / scenecut=40 / intra_refresh=0 / rc_lookahead=60 / rc=crf / mbtree=1 / crf=18.0 / qcomp=0.70 / qpmin=0 / qpmax=69 / qpstep=4 / ip_ratio=1.40 / aq=1:1.00
Аудио
Идентификатор : 1
Формат : AC-3
Формат/Информация : Audio Coding 3
Расширение режима : CM (complete main)
Идентификатор кодека : A_AC3
Продолжительность : 1 ч. 28 м.
Вид битрейта : Постоянный
Битрейт : 640 Кбит/сек
Каналы : 6 каналов
Расположение каналов : Front: L C R, Side: L R, LFE
Частота : 48,0 КГц
Битовая глубина : 16 бит
Метод сжатия : С потерями
Размер потока : 404 Мбайт (6%)
G-Force-3D.2011.SBS.60fps.720p.AC3rus.mkv.torrent
Торрент: Не зарегистрирован

Скачать

35 KB

Добавлен: 2011-11-09 13:40
Скачано: 683 раз  [ Список скачавших ]