Торренты   
 
 

 

История игрушек 2 / Toy Story 2 [1999г, 1080p, BDrip, Anamorph OverUnder]

Рейтинг 3D:
4 голосов
8.8
Рейтинг фильма:
4 голосов
9.0
 
Вы должны быть авторизированы,
чтобы ставить оценки


История игрушек 2
Toy Story 2

Год выпуска: 1999
Страна: США (Walt Disney Pictures, Pixar Animation Studios)
Жанр: Мультфильм, Фэнтези, Приключения, Семейный
Продолжительность: 01:32:23
Перевод: Профессиональный (полное дублирование)
Субтитры: есть
Режиссер: Джон Лассетер, Эш Браннон, Ли Анкрич / John Lasseter, Ash Brannon, Lee Unkrich
Роли дублировали / Озвучивали:
Вуди - Александр Баргман / Tom Hanks
Базз Лайтер - Станислав Концевич / Tim Allen
Джесси - Александра Фатхи / Joan Cusack
Вонючка Пит - Игорь Ефимов / Kelsey Grammer
Мистер Картофельная Голова - Артур Ваха / Don Rickles
Спиралька - Вадим Никитин / Jim Varney
Динозавр Рекс - Валерий Захарьев / Wallace Shawn
Поросёнок Хамм - Алексей Гурьев / John Ratzenberger
Бо Пип - Елена Ярема / Annie Potts
Эл, коллекционер игрушек - Евгений Умаров / Wayne Knight
Энди - Никита Остриков / John Morris
Мама Энди - Белла Ко / Laurie Metcalf
Миссис Картофельная Голова - Нина Потаповская / Estelle Harris
Эрми Садж - Геннадий Смирнов / R. Lee Ermey
Барби - Анжелика Неволина / Jodi Benson
Джери Чистильщик - Анатолий Азо / Jonathan Harris
Пингвин, Хеймлич - Станислав Соколов / Joe Ranft
Зург - Николай Буров / Andrew Stanton
Зелёные инопланетяне, мистер Спелл - Геннадий Смирнов / Jeff Pidgeon
Описание: Ковбой Вуди и другие игрушки мальчика по имени Энди продолжают жить, радуясь каждому дню. Но неожиданно все меняется, когда Вуди похищает коварный коллекционер. Оказывается, что Вуди — очень ценная игрушка из коллекции, за которую японский музей игрушек готов заплатить огромную сумму. В доме коллекционера он находит своих родственников. В это время игрушки во главе с Баззом Лайтером отправляются спасать Вуди.
Вуди узнает о своем знаменитом прошлом, Базз и другие игрушки проходят опасный и тернистый путь. Перед Вуди встает непростой вопрос — каково же его предназначение? Блистать в витрине музея или же вернуться к любимому хозяину?
Доп. информация: "Неудачные дубли" на титрах - переведены.

Знаете ли вы, что...

  • На 24-й минуте фильма, когда Свинья-Копилка быстро переключает каналы телевизора, можно заметить кадры короткометражных мультфильмов студии «Pixar», среди которых «Люксо младший» (1986), «Звезда цирка» (1987), «Оловянная игрушка» (1988), «Безделушка» (1989).
  • Сцена, в которой Рекс гонится за автомобилем в магазине игрушек, - это ссылка на фильм «Парк Юрского Периода» (1993).
  • Игрушечный мастер Джерри, который чинил Вуди, это герой короткометражки «Игра Джерри» от той же студий Pixar.
  • В каждом фильме Pixar появляется номер A113, он соответствует номеру классной комнаты, в которой учились Джон Лассетер, Бред Берд, Пит Доктер и Эндрю Стэнтон в школе CalArts. В фильме «История Игрушек 2» номер А113 можно встретить несколько раз: это номер водительских прав мамы Энди, а так же номер рейса компании LassetAir, название которой отсылает зрителей к имени режиссера Джона Лассетера.
  • Проверено на встроенном плейере ТВ Samsung UE-C7000 --Формат 3d: Anamorph OverUnder
    Качество: BDrip
    Контейнер: MKV
    Видео: AVC / 1920х1080p / 23,976 fps / 9253 Kbps
    Аудио#1: Русский / AC3 / 48 KHz / 5.1 ch / 448 Kbps
    Аудио#2: Украинский / AC3 / 48 KHz / 5.1 ch / 640 Kbps
    Аудио#3: Английский / AC3 / 48 KHz / 5.1 ch / 640 Kbps
    Субтитры внешние srt: Русские полные, Русские комментарии, Английские полные

    MediaInfo

    General
    UniqueID : 205665667421102773180883260870594291005 (0x9AB9C44931F30F3AB3006ED65D36653D)
    Complete name : F:\Downloads\ToyStory2-3D.1999.halfOU.AC3-ash61\ToyStory2-3D.1999.halfOU.AC3-ash61.mkv
    Format : Matroska
    File size : 7.23 GiB
    Duration : 1h 32mn
    Overall bit rate : 11.2 Mbps
    Movie name : Toy Story 2 (ash61)
    Encoded date : UTC 2011-11-10 12:11:25
    Writing application : mkvmerge v3.4.0 ('Rapunzel') сборка от May 15 2010 09:38:20
    Writing library : libebml v0.8.0 + libmatroska v0.9.0
    Video
    ID : 1
    Format : AVC
    Format/Info : Advanced Video Codec
    Format profile : High@L4.1
    Format settings, CABAC : Yes
    Format settings, ReFrames : 4 frames
    Codec ID : V_MPEG4/ISO/AVC
    Duration : 1h 32mn
    Bit rate : 9 253 Kbps
    Width : 1 920 pixels
    Height : 1 080 pixels
    Display aspect ratio : 16:9
    Frame rate : 23.976 fps
    Color space : YUV
    Chroma subsampling : 4:2:0
    Bit depth : 8 bits
    Scan type : Progressive
    Bits/(Pixel*Frame) : 0.186
    Stream size : 5.97 GiB (83%)
    Title : Rip by Ash61
    Writing library : x264 core 113 r1884 7313bb5
    Encoding settings : cabac=1 / ref=4 / deblock=1:-3:-3 / analyse=0x3:0x113 / me=umh / subme=9 / psy=1 / psy_rd=1.00:0.15 / mixed_ref=1 / me_range=16 / chroma_me=1 / trellis=2 / 8x8dct=1 / cqm=0 / deadzone=21,11 / fast_pskip=1 / chroma_qp_offset=-3 / threads=3 / sliced_threads=0 / nr=0 / decimate=1 / interlaced=0 / constrained_intra=0 / bframes=6 / b_pyramid=2 / b_adapt=2 / b_bias=0 / direct=3 / weightb=1 / open_gop=0 / weightp=2 / keyint=250 / keyint_min=23 / scenecut=40 / intra_refresh=0 / rc_lookahead=60 / rc=crf / mbtree=1 / crf=17.0 / qcomp=0.70 / qpmin=0 / qpmax=69 / qpstep=4 / ip_ratio=1.40 / aq=1:1.00
    Audio #1
    ID : 2
    Format : AC-3
    Format/Info : Audio Coding 3
    Mode extension : CM (complete main)
    Codec ID : A_AC3
    Duration : 1h 32mn
    Bit rate mode : Constant
    Bit rate : 448 Kbps
    Channel(s) : 6 channels
    Channel positions : Front: L C R, Side: L R, LFE
    Sampling rate : 48.0 KHz
    Bit depth : 16 bits
    Compression mode : Lossy
    Stream size : 296 MiB (4%)
    Title : Дубляж (+"неудачные дубли")(Edited by Ash61)
    Language : Russian
    Audio #2
    ID : 3
    Format : AC-3
    Format/Info : Audio Coding 3
    Mode extension : CM (complete main)
    Codec ID : A_AC3
    Duration : 1h 32mn
    Bit rate mode : Constant
    Bit rate : 640 Kbps
    Channel(s) : 6 channels
    Channel positions : Front: L C R, Side: L R, LFE
    Sampling rate : 48.0 KHz
    Bit depth : 16 bits
    Compression mode : Lossy
    Stream size : 423 MiB (6%)
    Language : Ukrainian
    Audio #3
    ID : 4
    Format : AC-3
    Format/Info : Audio Coding 3
    Mode extension : CM (complete main)
    Codec ID : A_AC3
    Duration : 1h 32mn
    Bit rate mode : Constant
    Bit rate : 640 Kbps
    Channel(s) : 6 channels
    Channel positions : Front: L C R, Side: L R, LFE
    Sampling rate : 48.0 KHz
    Bit depth : 16 bits
    Compression mode : Lossy
    Stream size : 423 MiB (6%)
    Language : English
    Menu
    00:00:00.000 : :1
    00:10:29.712 : :2
    00:23:15.978 : :3
    00:35:40.221 : :4
    00:47:07.199 : :5
    00:57:10.552 : :6
    01:07:22.664 : :7
    01:16:15.529 : :8
    01:24:46.373 : :9

    Скриншоты

    Господа копипастеры, пожалуйста, уважайте труд рипперов -
    не "забывайте" указывать авторство в своих релизах!
    Благодарности релизеру (18)

    Торрент:

    Статус:

    Размер:

    Зарегистрирован   [ 2011-11-10 18:48 ]

    проверено

    7.23 GB