Торренты   
 
 


Морские динозавры 3D: Путешествие в доисторический мир / Sea Rex 3D: Journey to a Prehistoric World (Ронан Шапален, Паскаль Вонг) [2010 г., OverUnder, BDrip 720p]

Рейтинг 3D:
Пока никто не голосовал
Рейтинг фильма:
Пока никто не голосовал
 
Вы должны быть авторизированы,
чтобы ставить оценки


Морские динозавры 3D: Путешествие в доисторический мир
Sea Rex 3D: Journey to a Prehistoric World
Год выпуска: 2010
Страна: Франция, Великобритания
Жанр: Документальный
Продолжительность: 00:40:58
Перевод: Профессиональный (полное дублирование)
Режиссер:
Ронан Шапален, Паскаль Вонг / Ronan Chapalain, Pascal Vuong
В ролях:
Гийом Денеф, Норберт Феррер, Хлоя Холлингс, Ричард Райдер
Рассказчик:
Эммануил Виторган
Описание:
Откройте для себя самую интересную страницу жизни планеты Земля! С этим фильмом в составе отважной команды вы перенесетесь на 200 млн. лет назад, в невероятный мир далеких времен. Впервые вы отправляетесь в незабываемое и опасное путешествие на встречу с повелителями океана знаменитого Юрского периода — гигантскими морскими динозаврами. Вас ждут поразительные открытия о жизни древней и современной фауны, и невероятная красота подводных ландшафтов, от которых захватывает дух. Удивляйтесь, испытайте страх и восторг от встречи с великим прошлым нашей планеты. Мы подарим вам новый мир, о существовании которого вы даже не подозревали…
Качество: BDrip
Контейнер: MKV
Формат 3D: OverUnder / Вертикальная стереопара
Видео кодек: x264
Аудио кодек: AC3
Видео: x264, 1280x1440, 23.976 кадр/сек, 6262 Кбит/сек
Аудио 1: русский; AC3, 6 каналов, 640 Кбит/сек, 48,0 КГц
Аудио 2: английский; AC3, 6 каналов, 640 Кбит/сек, 48,0 КГц (отдельно на Narod.Ru)

Скриншоты

MI


Общее
Уникальный идентификатор : 246656594145337628485309431075243955870 (0xB99055022DF7EB52978C51878456169E)
Полное имя : M:\3D-RuGroup\SeaRex-3D-JourneyToAPrehistoricWorld.2010.BD3DRip.720p.OU.x264.AC3.Rus.mkv
Формат : Matroska
Версия формата : Version 2
Размер файла : 2,02 Гбайт
Продолжительность : 40 м.
Общий поток : 7042 Кбит/сек
Название фильма : SeaRex-3D-JourneyToAPrehistoricWorld.2010.BD3DRip.720p.OU.x264.AC3.Rus
Дата кодирования : UTC 2011-11-10 14:10:28
Программа кодирования : mkvmerge v3.4.0 ('Rapunzel') сборка от May 15 2010 09:38:20
Библиотека кодирования : libebml v0.8.0 + libmatroska v0.9.0
Видео
Идентификатор : 1
Формат : AVC
Формат/Информация : Advanced Video Codec
Профиль формата : High@L4.0
Параметр CABAC формата : Да
Параметр ReFrames формата : 4 кадра
Идентификатор кодека : V_MPEG4/ISO/AVC
Продолжительность : 40 м.
Битрейт : 6262 Кбит/сек
Ширина : 1280 пикселей
Высота : 1440 пикселей
Соотношение сторон : 0,889
Частота кадров : 23,976 кадра/сек
Цветовое пространство : YUV
Субдискретизация насыщенности : 4:2:0
Битовая глубина : 8 бит
Тип развёртки : Прогрессивная
Бит/(Пиксели*Кадры) : 0.142
Размер потока : 1,79 Гбайт (89%)
Заголовок : SeaRex 3D
Библиотека кодирования : x264 core 116 r2074 2641b9e
Настройки программы : cabac=1 / ref=4 / deblock=1:-3:-3 / analyse=0x3:0x133 / me=umh / subme=9 / psy=1 / psy_rd=1.00:0.15 / mixed_ref=1 / me_range=32 / chroma_me=1 / trellis=2 / 8x8dct=1 / cqm=0 / deadzone=21,11 / fast_pskip=0 / chroma_qp_offset=-3 / threads=3 / sliced_threads=0 / nr=0 / decimate=1 / interlaced=0 / bluray_compat=0 / constrained_intra=0 / bframes=6 / b_pyramid=2 / b_adapt=2 / b_bias=0 / direct=3 / weightb=1 / open_gop=0 / weightp=2 / keyint=250 / keyint_min=23 / scenecut=40 / intra_refresh=0 / rc_lookahead=40 / rc=crf / mbtree=1 / crf=18.0 / qcomp=0.70 / qpmin=10 / qpmax=69 / qpstep=4 / ip_ratio=1.40 / aq=1:0.70
Язык : English
Аудио
Идентификатор : 2
Формат : AC-3
Формат/Информация : Audio Coding 3
Расширение режима : CM (complete main)
Идентификатор кодека : A_AC3
Продолжительность : 40 м.
Вид битрейта : Постоянный
Битрейт : 640 Кбит/сек
Каналы : 6 каналов
Расположение каналов : Front: L C R, Side: L R, LFE
Частота : 48,0 КГц
Битовая глубина : 16 бит
Метод сжатия : С потерями
Размер потока : 188 Мбайт (9%)
Заголовок : Russian (5.1 / 48 kHz / 640 kbps)
Язык : Russian
Меню
00:00:00.000 : :CHAPTER01
00:07:22.817 : :CHAPTER02
00:14:27.825 : :CHAPTER03
00:21:55.898 : :CHAPTER04
00:29:34.898 : :CHAPTER05
00:38:39.025 : :CHAPTER06
Благодарности релизеру (1)

Торрент:

Статус:

Размер:

Зарегистрирован   [ 2011-11-10 20:42 ]

проверено

2.02 GB