Торренты   
 
 


Смурфики / The Smurfs (Раджа Госнелл) [2011 г., SideBySide, 60FPS, BDrip, 720p]

Рейтинг 3D:
14 голосов
6.8
Рейтинг фильма:
13 голосов
6.7
 
Вы должны быть авторизированы,
чтобы ставить оценки


Смурфики / The Smurfs
Год выпуска: 2011
Страна: США
Жанр: Фэнтези, Комедия, Приключения, Семейный
Продолжительность: 01:42:43
Перевод: Профессиональный (полное дублирование)
Режиссер: Раджа Госнелл
В ролях: Том Кэйн, Джонатан Уинтерс, Алан Камминг, Кэти Перри, Фред Армизен, Джордж Лопез, Антон Ельчин
Армен Джигарханян, Станислав Концевич, Александр Майоров, Наталья Виноградова, Светлана Кузнецова, Сергей Паршин, Борис Хасанов, Анна Шурочкина (Нюша), Александр Новиков, Станислав Никольский, Евгений Березкин, Виктор Костецкий
Описание: По сюжету, спасаясь от злого волшебника Гаргамеля, крошечные смурфики оказываются за пределами родной деревни. Из своего волшебного мира они попадают прямиком в наш мир, а именно в Центральный парк города Нью-Йорк. Теперь маленьким отважным смурфикам предстоит отыскать дорогу домой и не попасть в лапы Гаргамеля.

Доп. информация: Разгон кадров посредством Interframe до 60.

Формат 3d: SideBySide
Порядок ракурсов: Параллельная пара

Скриншоты

МИ

Общее
Уникальный идентификатор : 244172487475544724991320757701875234960 (0xB7B1E9180019904C89750D0D1FDA7890)
Полное имя : D:\3D\Rips 60 fps\Smurfs-3D.2011.SBS.60fps.720p.AC3rus.mkv
Формат : Matroska
Версия формата : Version 2
Размер файла : 10,0 Гбайт
Продолжительность : 1 ч. 42 м.
Общий поток : 14,0 Мбит/сек
Дата кодирования : UTC 2011-11-12 08:24:33
Программа кодирования : mkvmerge v4.6.0 ('Still Crazy After All These Years') сборка от Mar 10 2011 02:50:32
Библиотека кодирования : libebml v1.2.0 + libmatroska v1.1.0
Видео
Идентификатор : 1
Формат : AVC
Формат/Информация : Advanced Video Codec
Профиль формата : High@L5.0
Параметр CABAC формата : Да
Параметр ReFrames формата : 5 кадров
Идентификатор кодека : V_MPEG4/ISO/AVC
Продолжительность : 1 ч. 42 м.
Битрейт : 13,1 Мбит/сек
Ширина : 2560 пикселей
Высота : 720 пикселей
Соотношение сторон : 3,556
Частота кадров : 59,940 кадров/сек
Цветовое пространство : YUV
Субдискретизация насыщенности : 4:2:0
Битовая глубина : 8 бит
Тип развёртки : Прогрессивная
Бит/(Пиксели*Кадры) : 0.118
Размер потока : 9,36 Гбайт (93%)
Библиотека кодирования : x264 core 116 r2074 2641b9e
Настройки программы : cabac=1 / ref=5 / deblock=1:-3:-3 / analyse=0x3:0x113 / me=umh / subme=9 / psy=1 / psy_rd=1.00:0.15 / mixed_ref=1 / me_range=16 / chroma_me=1 / trellis=2 / 8x8dct=1 / cqm=0 / deadzone=21,11 / fast_pskip=1 / chroma_qp_offset=-3 / threads=12 / sliced_threads=0 / nr=0 / decimate=1 / interlaced=0 / bluray_compat=0 / constrained_intra=0 / bframes=6 / b_pyramid=2 / b_adapt=2 / b_bias=0 / direct=3 / weightb=1 / open_gop=0 / weightp=2 / keyint=250 / keyint_min=25 / scenecut=40 / intra_refresh=0 / rc_lookahead=60 / rc=crf / mbtree=1 / crf=18.0 / qcomp=0.70 / qpmin=0 / qpmax=69 / qpstep=4 / ip_ratio=1.40 / aq=1:1.00
Аудио
Идентификатор : 2
Формат : AC-3
Формат/Информация : Audio Coding 3
Расширение режима : CM (complete main)
Идентификатор кодека : A_AC3
Продолжительность : 1 ч. 42 м.
Вид битрейта : Постоянный
Битрейт : 640 Кбит/сек
Каналы : 6 каналов
Расположение каналов : Front: L C R, Side: L R, LFE
Частота : 48,0 КГц
Битовая глубина : 16 бит
Метод сжатия : С потерями
Размер потока : 470 Мбайт (5%)
Остальные раздачи этого фильма (5)
Благодарности релизеру (1)

Торрент:

Статус:

Размер:

Зарегистрирован   [ 2011-11-12 12:53 ]

проверено

10.02 GB