Торренты   
 
 

 

Щелкунчик и Крысиный король / The Nutcracker (Андрей Кончаловский) [2010г, 1080p, med_bad, BDrip, Anamorph OverUnder]

Рейтинг 3D:
3 голосов
1.8
Рейтинг фильма:
4 голосов
2.2
 
Вы должны быть авторизированы,
чтобы ставить оценки


[bad]Щелкунчик и Крысиный король
The Nutcracker

Год выпуска: 2010
Страна: Великобритания, Венгрия
Жанр: Фэнтези, Семейный
Продолжительность: 01:47:59
Перевод: Профессиональный (полное дублирование)
Режиссер: Андрей Кончаловский--Роли исполняли (Дублировали):Мэри - Эль Фаннинг (Юна Тимошенко)
Макс - Аарон Майкл Дрозин (Лев Аксельрод)
Щелкунчик, озвучка - Ширли Хендерсон (Марианна Мокшина)
Дядя Альберт - Натан Лейн (Владимир Долинский)
Крысиный король - Джон Туртурро (Филипп Киркоров)
Крысиная королева / Фрау Эва - Фрэнсис де ла Тур (Алла Пугачёва)
Отец - Ричард Э. Грант (Дмитрий Стрелков)
Мама / Снежная Фея - Юлия Высоцкая (Юлия Высоцкая)
Принц - Чарли Роу (Константин Ефимов)--Описание: Вена, 1920-е годы. Девятилетняя Мэри живет в доме, который полон прекрасных вещей и одиночества. Брат Макс, неутомимый проказник, донимает ее, а родители, хотя и горячо ее любят, слишком заняты, чтобы уделять ей достаточно внимания. Мэри тоскует по общению с друзьями и приключениям. Накануне Рождества к ней приходит любимый дядюшка Альберт и дарит деревянную куклу — Щелкунчика. Воображение Мэри оживляет куклу, и она попадает в мир детских грез, где все становится возможным — снежинки-балерины кружатся в танце, игрушки на елке оживают, да и сама ель превращается в целую вселенную, в которой правит добрая Снежная Фея, так похожая на маму…
И пока Мэри осваивается в этом удивительном мире, полчища крыс во главе с коварным Крысиным Королем и его злобной матерью Крысиной Королевой захватывают город и порабощают людей, стремясь стереть человечество с лица земли. Щелкунчик собирает друзей на битву с крысами, но попадает в плен. Победить крысиную армию и освободить Щелкунчика будет не просто — отважной Мэри на пути будут мешать дикие байкеры на удивительных летающих мотоциклах, крысы-роботы и летучие мыши, экипированные сверхмощным фантастическим оружием…

Знаете ли вы, что...

  • Идею экранизации сказки Гофмана Кончаловский вынашивал более 40 лет. Еще в 1960-е он готовил наброски сценария подобной картины для одного британского режиссера, но тот фильм так и не был снят.
  • Саундтреком к фильму стала классическая музыка из балета П.И. Чайковского в современной обработке композитора Эдуарда Артемьева. На нее же положены и восемь песен, слова к которым написал обладатель «Оскара», популярный английский поэт и либреттист Сэр Тим Райс (рок-опера «Иисус Христос — Cуперзвезда», мультфильмы «Аладдин» и «Король Лев», мюзикл «Красавица и Чудовище» и др.).
  • Основная часть съемок проходила в течение 15 недель в новых павильонах киностудии «Штерн» в Венгрии (недалеко от Будапешта), а также на расположенной поблизости натурной площадке, где Кевин Фиппс («V как Вендетта», «Троя», «Братья по оружию») воссоздал обстановку старой Вены, уделив особое внимание фасадам зданий той эпохи и имитации мощеных улиц.
  • Чтобы передать атмосферу «крысиного» мира, дневные уличные сцены снимались ночью, что позволило получить эффект «бесцветного дня».
  • 60 статистов, сыгравших полчище крыс, нападающих на город, прошли специальное обучение в «крысином тренировочном лагере», где специалисты научили их подражать движениям грызунов.
  • В озвучке картины впервые приняла участие Алла Пугачева. Она приняла предложение озвучить роль Крысиной Королевы, хитрой и властной. А голос Крысиного Короля достался Филиппу Киркорову. В одном из интервью он признался, что многие диалоги были «как будто взяты прямо из реальной жизни».
  • Проверено на встроенном плейере ТВ Samsung UE-C7000
    --Формат 3d: Anamorph OverUnder
    Качество: BDrip
    Контейнер: MKV
    Видео: AVC / 1920х1080p / 23,976 fps / 12.4 Mbps
    Аудио#1: Русский / AC3 / 48 KHz / 5.1 ch / 640 Kbps
    Аудио#2: Английский / AC3 / 48 KHz / 5.1 ch / 640 Kbps

    MediaInfo

    General
    UniqueID : 200879778410394298813005657617788346454 (0x972009BD66126B87820847746360A056)
    Complete name : F:\Downloads\TheNutcracker-3D.2010.halfOU.AC3-ash61.mkv
    Format : Matroska
    File size : 10.6 GiB
    Duration : 1h 48mn
    Overall bit rate : 14.0 Mbps
    Movie name : Щелкунчик и Крысиный король / The Nutcracker (ash61)
    Encoded date : UTC 2011-11-12 17:16:56
    Writing application : mkvmerge v3.4.0 ('Rapunzel') сборка от May 15 2010 09:38:20
    Writing library : libebml v0.8.0 + libmatroska v0.9.0
    Video
    ID : 1
    Format : AVC
    Format/Info : Advanced Video Codec
    Format profile : High@L4.1
    Format settings, CABAC : Yes
    Format settings, ReFrames : 4 frames
    Codec ID : V_MPEG4/ISO/AVC
    Duration : 1h 48mn
    Bit rate : 12.4 Mbps
    Width : 1 920 pixels
    Height : 1 080 pixels
    Display aspect ratio : 16:9
    Frame rate : 23.976 fps
    Color space : YUV
    Chroma subsampling : 4:2:0
    Bit depth : 8 bits
    Scan type : Progressive
    Bits/(Pixel*Frame) : 0.250
    Stream size : 9.37 GiB (89%)
    Title : Rip by Ash61
    Writing library : x264 core 113 r1884 7313bb5
    Encoding settings : cabac=1 / ref=4 / deblock=1:-3:-3 / analyse=0x3:0x113 / me=umh / subme=9 / psy=1 / psy_rd=1.00:0.15 / mixed_ref=1 / me_range=16 / chroma_me=1 / trellis=2 / 8x8dct=1 / cqm=0 / deadzone=21,11 / fast_pskip=1 / chroma_qp_offset=-3 / threads=3 / sliced_threads=0 / nr=0 / decimate=1 / interlaced=0 / constrained_intra=0 / bframes=6 / b_pyramid=2 / b_adapt=2 / b_bias=0 / direct=3 / weightb=1 / open_gop=0 / weightp=2 / keyint=250 / keyint_min=23 / scenecut=40 / intra_refresh=0 / rc_lookahead=60 / rc=crf / mbtree=1 / crf=18.0 / qcomp=0.70 / qpmin=0 / qpmax=69 / qpstep=4 / ip_ratio=1.40 / aq=1:1.00
    Audio #1
    ID : 2
    Format : AC-3
    Format/Info : Audio Coding 3
    Mode extension : CM (complete main)
    Codec ID : A_AC3
    Duration : 1h 48mn
    Bit rate mode : Constant
    Bit rate : 640 Kbps
    Channel(s) : 6 channels
    Channel positions : Front: L C R, Side: L R, LFE
    Sampling rate : 48.0 KHz
    Bit depth : 16 bits
    Compression mode : Lossy
    Stream size : 494 MiB (5%)
    Language : Russian
    Audio #2
    ID : 3
    Format : AC-3
    Format/Info : Audio Coding 3
    Mode extension : CM (complete main)
    Codec ID : A_AC3
    Duration : 1h 48mn
    Bit rate mode : Constant
    Bit rate : 640 Kbps
    Channel(s) : 6 channels
    Channel positions : Front: L C R, Side: L R, LFE
    Sampling rate : 48.0 KHz
    Bit depth : 16 bits
    Compression mode : Lossy
    Stream size : 494 MiB (5%)
    Language : English
    Menu
    00:00:00.000 : :01
    00:07:16.311 : :02
    00:13:56.461 : :03
    00:20:41.031 : :04
    00:27:39.032 : :05
    00:36:02.285 : :06
    00:45:48.579 : :07
    00:55:24.571 : :08
    01:05:32.345 : :09
    01:15:56.051 : :10
    01:28:26.718 : :11
    01:39:16.951 : :12

    Скриншоты

    Господа копипастеры, пожалуйста, уважайте труд рипперов -
    не "забывайте" указывать авторство в своих релизах!
    Благодарности релизеру (7)

    Торрент:

    Статус:

    Размер:

    Зарегистрирован   [ 2011-11-12 23:28 ]

    проверено

    10.55 GB