Торренты   
 
 


В поисках Жу 3D / ZhuZhu Pets: Quest for Zhu (Боб Дусетте) [2011 г., SideBySide, 720p, 60FPS]

В поисках Жу 3D / ZhuZhu Pets: Quest for Zhu
Год выпуска: 2011
Страна: США
Жанр: мультфильм, детский
Продолжительность: 01:12:57
Перевод: Профессиональный (полное дублирование)
Режиссер: Боб Дусетте
Описание: Трогательный рассказ о четырех молодых хомячках, которые отправляются на поиски, чтобы найти Дворец Жу, где они полагают - все их мечты сбудутся. Присоединяйтесь к смелым и обаятельным крохам в их приключении!..
Доп. информация:
Внимание, это конверт в 60 FPS
Формат 3d: SideBySide
Порядок ракурсов: Параллельная пара

Скриншоты

МИ

Общее
Уникальный идентификатор : 213793693441958709730136439196757005057 (0xA0D72AE8A06D9F05A1B22B9C4A6C1301)
Полное имя : D:\3D\Rips 60 fps\ZhuZhu Pets Quest for Zhu 3D.2011.SBS.60fps.720p.AC3rus.mkv
Формат : Matroska
Версия формата : Version 2
Размер файла : 7,14 Гбайт
Продолжительность : 1 ч. 12 м.
Общий поток : 14,0 Мбит/сек
Дата кодирования : UTC 2011-11-13 09:54:30
Программа кодирования : mkvmerge v4.6.0 ('Still Crazy After All These Years') сборка от Mar 10 2011 02:50:32
Библиотека кодирования : libebml v1.2.0 + libmatroska v1.1.0
Видео
Идентификатор : 1
Формат : AVC
Формат/Информация : Advanced Video Codec
Профиль формата : High@L5.0
Параметр CABAC формата : Да
Параметр ReFrames формата : 5 кадров
Идентификатор кодека : V_MPEG4/ISO/AVC
Продолжительность : 1 ч. 12 м.
Битрейт : 13,1 Мбит/сек
Ширина : 2560 пикселей
Высота : 720 пикселей
Соотношение сторон : 3,556
Частота кадров : 59,940 кадров/сек
Цветовое пространство : YUV
Субдискретизация насыщенности : 4:2:0
Битовая глубина : 8 бит
Тип развёртки : Прогрессивная
Бит/(Пиксели*Кадры) : 0.118
Размер потока : 6,67 Гбайт (93%)
Библиотека кодирования : x264 core 116 r2074 2641b9e
Настройки программы : cabac=1 / ref=5 / deblock=1:-3:-3 / analyse=0x3:0x113 / me=umh / subme=9 / psy=1 / psy_rd=1.00:0.15 / mixed_ref=1 / me_range=16 / chroma_me=1 / trellis=2 / 8x8dct=1 / cqm=0 / deadzone=21,11 / fast_pskip=1 / chroma_qp_offset=-3 / threads=12 / sliced_threads=0 / nr=0 / decimate=1 / interlaced=0 / bluray_compat=0 / constrained_intra=0 / bframes=6 / b_pyramid=2 / b_adapt=2 / b_bias=0 / direct=3 / weightb=1 / open_gop=0 / weightp=2 / keyint=250 / keyint_min=25 / scenecut=40 / intra_refresh=0 / rc_lookahead=60 / rc=crf / mbtree=1 / crf=17.0 / qcomp=0.70 / qpmin=0 / qpmax=69 / qpstep=4 / ip_ratio=1.40 / aq=1:1.00
Аудио
Идентификатор : 2
Формат : AC-3
Формат/Информация : Audio Coding 3
Расширение режима : CM (complete main)
Идентификатор кодека : A_AC3
Продолжительность : 1 ч. 12 м.
Вид битрейта : Постоянный
Битрейт : 640 Кбит/сек
Каналы : 6 каналов
Расположение каналов : Front: L C R, Side: L R, LFE
Частота : 48,0 КГц
Битовая глубина : 16 бит
Метод сжатия : С потерями
Размер потока : 334 Мбайт (5%)
ZhuZhu Pets Quest for Zhu 3D.2011.SBS.60fps.720p.AC3rus.mkv.torrent
Торрент: Не зарегистрирован

Скачать

36 KB

Добавлен: 2011-11-13 14:21
Скачано: 745 раз  [ Список скачавших ]