Торренты   
 
 


Смурфики / The Smurfs (Раджа Госнелл) [2011 г., Anamorph OverUnder]

Рейтинг 3D:
14 голосов
6.8
Рейтинг фильма:
13 голосов
6.7
 
Вы должны быть авторизированы,
чтобы ставить оценки


Смурфики / The Smurfs
Год выпуска: 2011
Страна: США
Жанр: Фэнтези, Комедия, Приключения, Семейный
Продолжительность: 01:42:43
Перевод: Профессиональный (полное дублирование)
Режиссер: Раджа Госнелл
В ролях: Том Кэйн, Джонатан Уинтерс, Алан Камминг, Кэти Перри, Фред Армизен, Джордж Лопез,
Антон Ельчин, Армен Джигарханян, Станислав Концевич, Александр Майоров, Наталья Виноградова, Светлана Кузнецова, Сергей Паршин, Борис Хасанов, Анна Шурочкина (Нюша), Александр Новиков, Станислав Никольский, Евгений Березкин, Виктор Костецкий
Описание: По сюжету, спасаясь от злого волшебника Гаргамеля, крошечные смурфики оказываются за пределами родной деревни. Из своего волшебного мира они попадают прямиком в наш мир, а именно в Центральный парк города Нью-Йорк. Теперь маленьким отважным смурфикам предстоит отыскать дорогу домой и не попасть в лапы Гаргамеля.
Формат 3d: Anamorph OverUnder
Видео: AVC, h264, 1920х1080 , 23,976 кадр/сек, 16,0 Мбит/сек
Аудио: Rus, AC-3, 6 каналов, 640 Кбит/сек, 48,0 КГц Вшитый
Аудио: Ukr, AC-3, 6 каналов, 640 Кбит/сек, 48,0 КГц Отдельным файлом
Аудио: Eng, AC-3, 6 каналов, 640 Кбит/сек, 48,0 КГц Отдельным файлом
Субтитры: Rus, Forsed, srt вшитые и отдельным файлом
Лучшее "спасибо" - скачать сэмпл...

Скриншоты



Gif анимация

МИ

Общее
Уникальный идентификатор : 223793690290802525502904016870221245534 (0xA85D18D1B058985F9ED6715D42B76C5E)
Полное имя : Смурфики_Half_OU\Смурфики_Half_OU.mkv
Формат : Matroska
Версия формата : Version 2
Размер файла : 12,2 Гбайт
Продолжительность : 1 ч. 42 м.
Общий поток : 17,0 Мбит/сек
Дата кодирования : UTC 2011-11-14 14:04:49
Программа кодирования : mkvmerge v5.0.0 ('Die Wahre Liebe') built on Sep 25 2011 20:33:49
Библиотека кодирования : libebml v1.2.2 + libmatroska v1.3.0
Видео
Идентификатор : 1
Формат : AVC
Формат/Информация : Advanced Video Codec
Профиль формата : High@L4.0
Параметр CABAC формата : Да
Параметр ReFrames формата : 4 кадра
Идентификатор кодека : V_MPEG4/ISO/AVC
Продолжительность : 1 ч. 42 м.
Битрейт : 16,0 Мбит/сек
Ширина : 1920 пикселей
Высота : 1080 пикселей
Соотношение сторон : 16:9
Частота кадров : 23,976 кадра/сек
Цветовое пространство : YUV
Субдискретизация насыщенности : 4:2:0
Битовая глубина : 8 бит
Тип развёртки : Прогрессивная
Бит/(Пиксели*Кадры) : 0.322
Размер потока : 11,5 Гбайт (94%)
Заголовок : BDRip by TopGun
Библиотека кодирования : x264 core 116 r2074 2641b9e
Настройки программы : cabac=1 / ref=4 / deblock=1:-3:-3 / analyse=0x3:0x133 / me=umh / subme=10 / psy=1 / psy_rd=1.00:0.10 / mixed_ref=1 / me_range=16 / chroma_me=1 / trellis=2 / 8x8dct=1 / cqm=0 / deadzone=21,11 / fast_pskip=0 / chroma_qp_offset=-3 / threads=6 / sliced_threads=0 / nr=0 / decimate=1 / interlaced=0 / bluray_compat=0 / constrained_intra=0 / bframes=7 / b_pyramid=2 / b_adapt=2 / b_bias=0 / direct=3 / weightb=1 / open_gop=0 / weightp=2 / keyint=250 / keyint_min=23 / scenecut=40 / intra_refresh=0 / rc_lookahead=20 / rc=crf / mbtree=1 / crf=18.0 / qcomp=0.70 / qpmin=10 / qpmax=69 / qpstep=4 / frame-packing=4 / ip_ratio=1.40 / aq=1:0.90
Default : Да
Forced : Нет
Аудио
Идентификатор : 2
Формат : AC-3
Формат/Информация : Audio Coding 3
Расширение режима : CM (complete main)
Идентификатор кодека : A_AC3
Продолжительность : 1 ч. 42 м.
Вид битрейта : Постоянный
Битрейт : 640 Кбит/сек
Каналы : 6 каналов
Расположение каналов : Front: L C R, Side: L R, LFE
Частота : 48,0 КГц
Битовая глубина : 16 бит
Метод сжатия : С потерями
Размер потока : 470 Мбайт (4%)
Заголовок : Дубляж
Язык : Russian
Default : Да
Forced : Нет
Текст
Идентификатор : 3
Формат : UTF-8
Идентификатор кодека : S_TEXT/UTF8
Идентификатор кодека/Информация : UTF-8 Plain Text
Default : Да
Forced : Да
Внимание! У кого на ТВ не показывает, не прет, не воспроизводит, не кажет, итд... прогоняем через MKVmergeGUI используя за основу эту инструкцию - MKVmergeGUI (инструкция по основным операциям редактирования) - Если не помогает, удаляем главы по этой же инструкции!
Остальные раздачи этого фильма (5)
Благодарности релизеру (4)

Торрент:

Статус:

Размер:

Зарегистрирован   [ 2012-05-06 21:17 ]

проверено

13.1 GB