Торренты   
 
 


Конан-варвар / Conan the Barbarian (Маркус Ниспел / Marcus Nispel) [2011г, 1080p, BDrip, med_bad, Anamorph OverUnder]

Рейтинг 3D:
11 голосов
6.4
Рейтинг фильма:
10 голосов
7.4
 
Вы должны быть авторизированы,
чтобы ставить оценки


[bad]Конан-варвар
Conan the Barbarian

Год выпуска: 2011
Страна: США (Lionsgate, Millennium Films)
Жанр: Фэнтези, Боевик, Приключения
Продолжительность: 01:52:41
Перевод: Профессиональный (полное дублирование)
Режиссер: Маркус Ниспел / Marcus Nispel
В ролях: Джейсон Момоа, Стивен Лэнг, Рэйчел Николс, Роуз МакГоун, Рон Перлман, Нонсо Анози, Саид Тагмауи, Боб Сапп, Лео Ховард, Стив О’Доннелл, Раад Рави, Лайла Руасс
Роли дублировали: Владимир Антоник, Борис Токарев, Людмила Шувалова, Ирина Киреева, Александр Новиков, Денис Беспалый, Борис Шувалов, Рудольф Панков
Описание: Природа наделила его силой. Гибель отца сделала его свирепым. Великий киммерийский воин Конан отправляется в дальнее странствие, чтобы совершить отмщение за кровь своего рода. Но поиски, которые начинаются как личная вендетта, вскоре оборачиваются эпической схваткой со сверхъестественными силами, поработившими народы великой Хайбории. Киммерийский воин — последняя надежда на спасение…--Проверено на встроенном плейере ТВ Samsung UE-C7000
--Формат 3d: Anamorph OverUnder
Качество: BDrip
Контейнер: MKV
Видео: AVC / 1920х1080p / 23,976 fps / 10.6 Mbps
Аудио#1: Русский / AC3 / 48 KHz / 5.1 ch / 448 Kbps
Аудио#2: Английский / AC3 / 48 KHz / 5.1 ch / 640 Kbps

MediaInfo

General
UniqueID : 228479513753716261072741886135910752576 (0xABE38DC0B518EDA8B43F62EA8BFF6140)
Complete name : F:\Downloads\ConanTheBarbarian-3D.2011.halfOU.AC3(ash61).mkv
Format : Matroska
File size : 9.38 GiB
Duration : 1h 52mn
Overall bit rate : 11.9 Mbps
Movie name : Conan The Barbarian 3D (ash61)
Encoded date : UTC 2011-11-14 13:18:25
Writing application : mkvmerge v3.4.0 ('Rapunzel') сборка от May 15 2010 09:38:20
Writing library : libebml v0.8.0 + libmatroska v0.9.0
Video
ID : 1
Format : AVC
Format/Info : Advanced Video Codec
Format profile : High@L4.1
Format settings, CABAC : Yes
Format settings, ReFrames : 4 frames
Codec ID : V_MPEG4/ISO/AVC
Duration : 1h 52mn
Bit rate : 10.6 Mbps
Width : 1 920 pixels
Height : 1 080 pixels
Display aspect ratio : 16:9
Frame rate : 23.976 fps
Color space : YUV
Chroma subsampling : 4:2:0
Bit depth : 8 bits
Scan type : Progressive
Bits/(Pixel*Frame) : 0.213
Stream size : 8.34 GiB (89%)
Title : Rip by Ash61
Writing library : x264 core 113 r1884 7313bb5
Encoding settings : cabac=1 / ref=4 / deblock=1:-3:-3 / analyse=0x3:0x113 / me=umh / subme=9 / psy=1 / psy_rd=1.00:0.15 / mixed_ref=1 / me_range=16 / chroma_me=1 / trellis=2 / 8x8dct=1 / cqm=0 / deadzone=21,11 / fast_pskip=1 / chroma_qp_offset=-3 / threads=3 / sliced_threads=0 / nr=0 / decimate=1 / interlaced=0 / constrained_intra=0 / bframes=6 / b_pyramid=2 / b_adapt=2 / b_bias=0 / direct=3 / weightb=1 / open_gop=0 / weightp=2 / keyint=250 / keyint_min=23 / scenecut=40 / intra_refresh=0 / rc_lookahead=60 / rc=crf / mbtree=1 / crf=18.0 / qcomp=0.70 / qpmin=0 / qpmax=69 / qpstep=4 / ip_ratio=1.40 / aq=1:1.00
Audio #1
ID : 2
Format : AC-3
Format/Info : Audio Coding 3
Mode extension : CM (complete main)
Codec ID : A_AC3
Duration : 1h 52mn
Bit rate mode : Constant
Bit rate : 448 Kbps
Channel(s) : 6 channels
Channel positions : Front: L C R, Side: L R, LFE
Sampling rate : 48.0 KHz
Bit depth : 16 bits
Compression mode : Lossy
Stream size : 361 MiB (4%)
Language : Russian
Audio #2
ID : 3
Format : AC-3
Format/Info : Audio Coding 3
Mode extension : CM (complete main)
Codec ID : A_AC3
Duration : 1h 52mn
Bit rate mode : Constant
Bit rate : 640 Kbps
Channel(s) : 6 channels
Channel positions : Front: L C R, Side: L R, LFE
Sampling rate : 48.0 KHz
Bit depth : 16 bits
Compression mode : Lossy
Stream size : 516 MiB (5%)
Language : English
Menu
00:00:00.000 : :01
00:00:41.792 : :02
00:04:49.873 : :03
00:10:57.866 : :04
00:17:50.236 : :05
00:26:35.803 : :06
00:29:33.897 : :07
00:38:16.669 : :08
00:40:59.791 : :09
00:47:55.414 : :10
00:52:08.709 : :11
00:55:03.258 : :12
01:00:36.550 : :13
01:08:29.355 : :14
01:14:18.913 : :15
01:18:05.180 : :16
01:22:48.297 : :17
01:27:19.818 : :18
01:33:52.293 : :19
01:41:20.199 : :20
01:44:03.195 : :21

Скриншоты

Господа копипастеры, пожалуйста, уважайте труд рипперов -
не "забывайте" указывать авторство в своих релизах!
Благодарности релизеру (21)

Торрент:

Статус:

Размер:

Зарегистрирован   [ 2011-11-14 20:44 ]

проверено

9.38 GB