Торренты   
 
 


Конан-варвар / Conan the Barbarian (Маркус Ниспел / Marcus Nispel) [2011 г., med_bad, SideBySide, 720p, Bdrip, 60FPS]

Рейтинг 3D:
Пока никто не голосовал
Рейтинг фильма:
Пока никто не голосовал
 
Вы должны быть авторизированы,
чтобы ставить оценки


[bad]Конан-варвар / Conan the Barbarian
Год выпуска: 2011
Страна: США (Lionsgate, Millennium Films)
Жанр: Фэнтези, Боевик, Приключения
Продолжительность: 01:52:41
Перевод: Профессиональный (полное дублирование)
Режиссер: Маркус Ниспел / Marcus Nispel
В ролях: Джейсон Момоа, Стивен Лэнг, Рэйчел Николс, Роуз МакГоун, Рон Перлман, Нонсо Анози, Саид Тагмауи, Боб Сапп, Лео Ховард, Стив О’Доннелл, Раад Рави, Лайла Руасс
Описание: Природа наделила его силой. Гибель отца сделала его свирепым. Великий киммерийский воин Конан отправляется в дальнее странствие, чтобы совершить отмщение за кровь своего рода. Но поиски, которые начинаются как личная вендетта, вскоре оборачиваются эпической схваткой со сверхъестественными силами, поработившими народы великой Хайбории. Киммерийский воин — последняя надежда на спасение…

Доп. информация: Это конверт в 60 кадров.
Все подобные раздачи можно найти если ввести в строку поиска "60fps".

Формат 3d: SideBySide
Порядок ракурсов: Параллельная пара

Скриншоты

МИ

Общее
Уникальный идентификатор : 191823345663718225634157759495728261417 (0x904FD521A5159B5EB891883ECD1BE929)
Полное имя : D:\3D\Rips 60 fps\Conan3D.2011.SBS.60fps.720p.crop.AC3.mkv
Формат : Matroska
Версия формата : Version 2
Размер файла : 10,0 Гбайт
Продолжительность : 1 ч. 52 м.
Общий поток : 12,7 Мбит/сек
Дата кодирования : UTC 2011-11-14 17:08:04
Программа кодирования : mkvmerge v4.6.0 ('Still Crazy After All These Years') сборка от Mar 10 2011 02:50:32
Библиотека кодирования : libebml v1.2.0 + libmatroska v1.1.0
Видео
Идентификатор : 2
Формат : AVC
Формат/Информация : Advanced Video Codec
Профиль формата : High@L5.0
Параметр CABAC формата : Да
Параметр ReFrames формата : 5 кадров
Идентификатор кодека : V_MPEG4/ISO/AVC
Продолжительность : 1 ч. 52 м.
Битрейт : 12,0 Мбит/сек
Ширина : 2560 пикселей
Высота : 720 пикселей
Соотношение сторон : 3,556
Частота кадров : 59,940 кадров/сек
Цветовое пространство : YUV
Субдискретизация насыщенности : 4:2:0
Битовая глубина : 8 бит
Тип развёртки : Прогрессивная
Бит/(Пиксели*Кадры) : 0.109
Размер потока : 9,48 Гбайт (94%)
Библиотека кодирования : x264 core 116 r2074 2641b9e
Настройки программы : cabac=1 / ref=5 / deblock=1:-3:-3 / analyse=0x3:0x113 / me=umh / subme=9 / psy=1 / psy_rd=1.00:0.15 / mixed_ref=1 / me_range=16 / chroma_me=1 / trellis=2 / 8x8dct=1 / cqm=0 / deadzone=21,11 / fast_pskip=1 / chroma_qp_offset=-3 / threads=12 / sliced_threads=0 / nr=0 / decimate=1 / interlaced=0 / bluray_compat=0 / constrained_intra=0 / bframes=6 / b_pyramid=2 / b_adapt=2 / b_bias=0 / direct=3 / weightb=1 / open_gop=0 / weightp=2 / keyint=250 / keyint_min=25 / scenecut=40 / intra_refresh=0 / rc_lookahead=60 / rc=crf / mbtree=1 / crf=17.0 / qcomp=0.70 / qpmin=0 / qpmax=69 / qpstep=4 / ip_ratio=1.40 / aq=1:1.00
Аудио
Идентификатор : 1
Формат : AC-3
Формат/Информация : Audio Coding 3
Расширение режима : CM (complete main)
Идентификатор кодека : A_AC3
Продолжительность : 1 ч. 52 м.
Вид битрейта : Постоянный
Битрейт : 448 Кбит/сек
Каналы : 6 каналов
Расположение каналов : Front: L C R, Side: L R, LFE
Частота : 48,0 КГц
Битовая глубина : 16 бит
Метод сжатия : С потерями
Размер потока : 361 Мбайт (4%)
Благодарности релизеру (0)

Торрент:

Статус:

Размер:

Зарегистрирован   [ 2011-11-14 21:31 ]

проверено

10.03 GB