Торренты   
 
 


Гарри Поттер и Дары смерти: Часть II / Harry Potter and the Deathly Hallows: Part 2 [2011г, med_bad, 1080p, BDrip, Anamorph OverUnder]

Рейтинг 3D:
12 голосов
5.4
Рейтинг фильма:
13 голосов
4.4
 
Вы должны быть авторизированы,
чтобы ставить оценки


© Закрыто правообладателем
Год выпуска: 2011
Страна: США, Великобритания (Warner Bros. Pictures)
Жанр: Фэнтези, Приключения
Продолжительность: 02:10:25
Перевод: Профессиональный (полное дублирование)
Режиссер: Дэвид Йэтс / David Yates
В ролях: Дэниэл Рэдклифф, Руперт Гринт, Эмма Уотсон, Рэйф Файнс, Алан Рикман, Хелена Бонем Картер, Том Фелтон, Гари Олдман, Майкл Гэмбон, Мэгги Смит, Мэттью Льюис, Эванна Линч, Уорвик Дэвис, Джон Хёрт, Эмма Томпсон
Роли дублировали: Николай Быстров, Алексей Костричкин, Лина Иванова, Всеволод Кузнецов, Алексей Рязанцев, Наталия Вдовина, Велимир Русаков, Борис Токарев, Василий Бочкарев, Людмила Ильина, Иван Жарков, Мария Иващенко, Валерий Сторожик, Полина Чекан, Андрей Казанцев, Марина Дюжева, Диомид Виноградов, Рудольф Панков
Описание: В грандиозной последней главе битва между добрыми и злыми силами мира волшебников перерастает во всеобщую войну. Ставки ещё никогда не были так высоки, а поиск убежища — столь сложен. И быть может именно Гарри Поттеру придется пожертвовать всем в финальном сражении с Волан-де-Мортом. Способен ли наш герой спасти мир? И всё закончится здесь.

Знаете ли вы, что...

  • Сцены, в которых было задействовано наибольшее количество актеров и статистов, — финальная битва в «Гарри Поттере и Дарах Смерти», где участвовали 400 Пожирателей Смерти и егерей, и сцены в Большом зале, где присутствовали 400 детей и их преподаватели.
  • Кейт Уинслет рассматривалась на роль Хелены.
  • Актер Том Фелтон, игравший роль Драко Малфоя, настоял на том, чтобы в эпилоге роль его жены досталась его девушке, актрисе Джейд Гордон.
  • В книге решающий разговор между Темным Лордом и Северусом Снеггом состоялся в Воющей хижине, но Дейвид Ятис получил у Ролинг разрешение поменять место в экранизации. На студии «Ливсден» была сконструирована лодочная станция, расположенная у края воды под стенами Хогвартса. Крейг разработал здание в тюдоровском стиле со стеклянными стенами, поэтому, по его словам, «приходилось сражаться, всегда опасаясь в буквальном смысле потерять опору под ногами, потому что огни отражались в воде и в стекле, сбивая с толку».
  • Имея в своем распоряжении ограниченное пространство, команда супервайзера спецэффектов Джона Ричардсона придумала необычные лифты, работающие по принципу ножниц, которые поднимались вверх, создавая иллюзию возвышающихся сокровищ. Подразделение, отвечающее за инвентарь, возглавляемое Барри Уилкинсоном и Пьером Боханна, отлило более 200 000 золотых монет и тысячи других предметов, чтобы заполнить ими сейф. А команда визуальных эффектов потом в точности и многократно размножила их.
  • Таверна в Хогсмиде, принадлежащая брату Дамблдора, Аберфорту, больше всех других декораций напичкана электроникой. Аниматронная полномерная голова кабана внутри помещения управлялась из-за стены техниками.
  • Проверено на встроенном плейере ТВ Samsung UE-C7000
    --Формат 3d: Anamorph OverUnder
    Качество: BDrip
    Контейнер: MKV
    Видео: AVC / 1920х1080p / 23,976 fps / 10.2 Mbps
    Аудио#1: Русский / AC3 / 48 KHz / 5.1 ch / 640 Kbps
    Аудио#2: Украинский / AC3 / 48 KHz / 5.1 ch / 640 Kbps
    Аудио#3: Английский / AC3 / 48 KHz / 5.1 ch / 640 Kbps

    MediaInfo

    General
    UniqueID : 209722965487627412089538464627970277437 (0x9DC72C86673D2008952481C7508C003D)
    Complete name : F:\Downloads\HarryPotterAndTheDeathlyHallows.Part2.-3D.halfOU.AC3(ash61).mkv
    Format : Matroska
    File size : 11.3 GiB
    Duration : 2h 10mn
    Overall bit rate : 12.3 Mbps
    Movie name : Harry Potter and the Deathly Hallows: Part 2 (ash61)
    Encoded date : UTC 2011-11-16 11:04:27
    Writing application : mkvmerge v3.4.0 ('Rapunzel') сборка от May 15 2010 09:38:20
    Writing library : libebml v0.8.0 + libmatroska v0.9.0
    Video
    ID : 1
    Format : AVC
    Format/Info : Advanced Video Codec
    Format profile : High@L4.1
    Format settings, CABAC : Yes
    Format settings, ReFrames : 4 frames
    Codec ID : V_MPEG4/ISO/AVC
    Duration : 2h 10mn
    Bit rate : 10.2 Mbps
    Width : 1 920 pixels
    Height : 1 080 pixels
    Display aspect ratio : 16:9
    Frame rate : 23.976 fps
    Color space : YUV
    Chroma subsampling : 4:2:0
    Bit depth : 8 bits
    Scan type : Progressive
    Bits/(Pixel*Frame) : 0.205
    Stream size : 9.28 GiB (82%)
    Title : Rip by Ash61
    Writing library : x264 core 113 r1884 7313bb5
    Encoding settings : cabac=1 / ref=4 / deblock=1:-3:-3 / analyse=0x3:0x113 / me=umh / subme=9 / psy=1 / psy_rd=1.00:0.15 / mixed_ref=1 / me_range=16 / chroma_me=1 / trellis=2 / 8x8dct=1 / cqm=0 / deadzone=21,11 / fast_pskip=1 / chroma_qp_offset=-3 / threads=3 / sliced_threads=0 / nr=0 / decimate=1 / interlaced=0 / constrained_intra=0 / bframes=6 / b_pyramid=2 / b_adapt=1 / b_bias=0 / direct=1 / weightb=1 / open_gop=0 / weightp=2 / keyint=250 / keyint_min=23 / scenecut=40 / intra_refresh=0 / rc_lookahead=60 / rc=crf / mbtree=1 / crf=18.0 / qcomp=0.70 / qpmin=0 / qpmax=69 / qpstep=4 / ip_ratio=1.40 / aq=1:1.00
    Audio #1
    ID : 2
    Format : AC-3
    Format/Info : Audio Coding 3
    Mode extension : CM (complete main)
    Codec ID : A_AC3
    Duration : 2h 10mn
    Bit rate mode : Constant
    Bit rate : 640 Kbps
    Channel(s) : 6 channels
    Channel positions : Front: L C R, Side: L R, LFE
    Sampling rate : 48.0 KHz
    Bit depth : 16 bits
    Compression mode : Lossy
    Stream size : 597 MiB (5%)
    Language : Russian
    Audio #2
    ID : 3
    Format : AC-3
    Format/Info : Audio Coding 3
    Mode extension : CM (complete main)
    Codec ID : A_AC3
    Duration : 2h 10mn
    Bit rate mode : Constant
    Bit rate : 640 Kbps
    Channel(s) : 6 channels
    Channel positions : Front: L C R, Side: L R, LFE
    Sampling rate : 48.0 KHz
    Bit depth : 16 bits
    Compression mode : Lossy
    Stream size : 597 MiB (5%)
    Language : Ukrainian
    Audio #3
    ID : 4
    Format : AC-3
    Format/Info : Audio Coding 3
    Mode extension : CM (complete main)
    Codec ID : A_AC3
    Duration : 2h 10mn
    Bit rate mode : Constant
    Bit rate : 640 Kbps
    Channel(s) : 6 channels
    Channel positions : Front: L C R, Side: L R, LFE
    Sampling rate : 48.0 KHz
    Bit depth : 16 bits
    Compression mode : Lossy
    Stream size : 597 MiB (5%)
    Language : English
    Menu
    00:00:00.000 : :01
    00:02:58.220 : :02
    00:06:21.172 : :03
    00:10:21.871 : :04
    00:14:27.992 : :05
    00:20:05.621 : :06
    00:22:47.783 : :07
    00:25:38.620 : :08
    00:30:46.803 : :09
    00:34:33.655 : :10
    00:40:32.263 : :11
    00:45:52.249 : :12
    00:50:15.471 : :13
    00:54:41.028 : :14
    00:59:01.288 : :15
    01:03:42.068 : :16
    01:07:06.064 : :17
    01:11:24.489 : :18
    01:14:38.933 : :19
    01:23:40.849 : :20
    01:29:17.727 : :21
    01:31:25.021 : :22
    01:36:37.667 : :23
    01:41:09.105 : :24
    01:46:42.313 : :25
    01:50:18.362 : :26
    01:54:16.683 : :27
    01:58:12.877 : :28

    Скриншоты

    Господа копипастеры, пожалуйста, уважайте труд рипперов -
    не "забывайте" указывать авторство в своих релизах!
    Благодарности релизеру (12)

    Торрент:

    Статус:

    Размер:

    Зарегистрирован   [ 2011-11-16 17:33 ]

    © закрыто правообладателем

    11.25 GB