Торренты   
 
 


IMAX. Аравия / MacGillivray Freeman's Arabia [2010г, 1080p, BDrip, Anamorph OverUnder]

Рейтинг 3D:
4 голосов
6.8
Рейтинг фильма:
3 голосов
7.7
 
Вы должны быть авторизированы,
чтобы ставить оценки


Аравия
MacGillivray Freeman's Arabia

Год выпуска: 2010
Страна: США (IMAX, MacGillivray Freeman Films)
Жанр: Документальный
Продолжительность: 00:46:07
Перевод: Двухголосый закадровый (Омикрон)
Режиссер: Грег МакДжилливрей / Greg MacGillivray
Рассказчик по-английски: Хелен Миррен / Helen Mirren
В ролях: Хамза Джемджум / Hamzah Jamjoom
Описание: Фильм от создателя "Приключение в Гранд Каньоне - Река в опасности".
Двадцатидвухлетний арабский студент Чикагского университета Хамза Джемджум возвращается домой, чтобы показать родную культуру Саудовской Аравии.
Тут и Эр-Рияд, и Медина, и Мекка во время хаджа...
Доп.информация: За озвучку спасибо и меценатам: ork2010, gelom, LibrarianA, kimi, levanevski, Soiree, Turko, ГраНат27, sim2rtx, AntonTL, Der__Gott, JeffT, mentat.
----------------------------------
Некоторые эпизоды фильма сделаны в 2Д.-- Проверено на встроенном плейере ТВ Samsung UE-C7000 --Формат 3d: Anamorph OverUnder
Качество: BDrip
Контейнер: MKV
Видео: AVC / 1920х1080p / 23,976 fps / 19.5 Mbps
Аудио#1: Русский / AC3 / 48 KHz / 5.1 ch / 640 Kbps
Аудио#2: Английский / AC3 / 48 KHz / 5.1 ch / 640 Kbps

MediaInfo

General
UniqueID : 194076179670115815583254920770474296926 (0x9201B66C6C25DB5999678F324919465E)
Complete name : F:\Downloads\Arabia(3D)2010.halfOU(ash61).mkv
Format : Matroska
File size : 6.85 GiB
Duration : 46mn 8s
Overall bit rate : 21.2 Mbps
Movie name : MacGillivray Freeman's Arabia (3D) 2010 (ash61)
Encoded date : UTC 2012-03-11 13:49:08
Writing application : mkvmerge v3.4.0 ('Rapunzel') сборка от May 15 2010 09:38:20
Writing library : libebml v0.8.0 + libmatroska v0.9.0
Video
ID : 1
Format : AVC
Format/Info : Advanced Video Codec
Format profile : High@L4.1
Format settings, CABAC : Yes
Format settings, ReFrames : 4 frames
Codec ID : V_MPEG4/ISO/AVC
Duration : 46mn 8s
Bit rate : 19.5 Mbps
Width : 1 920 pixels
Height : 1 080 pixels
Display aspect ratio : 16:9
Frame rate : 23.976 fps
Color space : YUV
Chroma subsampling : 4:2:0
Bit depth : 8 bits
Scan type : Progressive
Bits/(Pixel*Frame) : 0.393
Stream size : 6.30 GiB (92%)
Title : Rip by Ash61
Writing library : x264 core 113 r1884 7313bb5
Encoding settings : cabac=1 / ref=4 / deblock=1:-3:-3 / analyse=0x3:0x113 / me=umh / subme=9 / psy=1 / psy_rd=1.00:0.15 / mixed_ref=1 / me_range=16 / chroma_me=1 / trellis=2 / 8x8dct=1 / cqm=0 / deadzone=21,11 / fast_pskip=1 / chroma_qp_offset=-3 / threads=3 / sliced_threads=0 / nr=0 / decimate=1 / interlaced=0 / constrained_intra=0 / bframes=6 / b_pyramid=2 / b_adapt=1 / b_bias=0 / direct=1 / weightb=1 / open_gop=0 / weightp=2 / keyint=250 / keyint_min=23 / scenecut=40 / intra_refresh=0 / rc_lookahead=60 / rc=crf / mbtree=1 / crf=17.0 / qcomp=0.70 / qpmin=0 / qpmax=69 / qpstep=4 / ip_ratio=1.40 / aq=1:1.00
Audio #1
ID : 2
Format : AC-3
Format/Info : Audio Coding 3
Mode extension : CM (complete main)
Codec ID : A_AC3
Duration : 46mn 8s
Bit rate mode : Constant
Bit rate : 640 Kbps
Channel(s) : 6 channels
Channel positions : Front: L C R, Side: L R, LFE
Sampling rate : 48.0 KHz
Bit depth : 16 bits
Compression mode : Lossy
Stream size : 211 MiB (3%)
Title : DVO - Омикрон
Language : Russian
Audio #2
ID : 3
Format : AC-3
Format/Info : Audio Coding 3
Mode extension : CM (complete main)
Codec ID : A_AC3
Duration : 46mn 8s
Bit rate mode : Constant
Bit rate : 640 Kbps
Channel(s) : 6 channels
Channel positions : Front: L C R, Side: L R, LFE
Sampling rate : 48.0 KHz
Bit depth : 16 bits
Compression mode : Lossy
Stream size : 211 MiB (3%)
Language : English
Menu
00:00:00.000 : :01
00:02:17.429 : :02
00:04:00.449 : :03
00:07:10.555 : :04
00:09:06.045 : :05
00:09:51.216 : :06
00:12:48.810 : :07
00:15:17.416 : :08
00:16:42.001 : :09
00:20:43.075 : :10
00:22:21.340 : :11
00:24:10.449 : :12
00:25:45.794 : :13
00:28:49.269 : :14
00:31:48.907 : :15
00:32:59.186 : :16
00:37:06.641 : :17
00:42:12.488 : :18

Скриншоты

Господа копипастеры, пожалуйста, уважайте труд рипперов -
не "забывайте" указывать авторство в своих релизах!
--11.03.2012 - Релиз обновлён - добавлена русская озвучка.
Перекачайте, пожалуйста, торрент-файл.
Благодарности релизеру (30)

Торрент:

Статус:

Размер:

Зарегистрирован   [ 2012-03-11 20:45 ]

проверено

6.85 GB